Welcome Guest ( Log In | Register )

> Releases Upload / Добавление релизов

Добавить релиз тут / Click here to add release
Рекомендованные обменники / Recommended file shares

> Wait - We Are In Transit [ep] (2019), Progressive Death Metal
post Jul 12 2019, 01:04:08
Post #1

Правь статус, ####!111
**************
Group: Металариец
Posts: 18,206
Releases: 12314
From: Г.Харьков
On Forums: 7 years 3 months
Thanks: 207836 time(s)
Unknown


(IMG:https://metalarea.org/images/audiocovers/2019_Jul/acov_tid324281_thumb.jpg)

*Artist: Wait
*Album: We Are In Transit [ep]
*Year: 2019
*Genre: Progressive Death Metal
*Country: United States (IMG:https://metalarea.org/forum/style_images/flags/United%20States.png)
*Format: mp3@CBR320kbps
*Size: 56MB

Tracklist:
01. Wonder 08:51
02. Mushroom Song 08:36
03. Tomorrow Awaits 06:57
******************************
Total playing time: 24:24




Extended info
Charlie Eron - guitar
Max Phelps - vocals
Alex Weber - bass
Anup Sastry - drums


Technical info
(IMG:https://metalarea.org/images/spectrogram/2019_Jul/b52d36ab65bea9783368157080b9c42c.png)
Input File: 03 - Tomorrow Awaits.mp3
Channels : 2
Sample Rate : 44100
Precision : 16-bit
Duration : 00:06:57.51 = 18412279 samples = 31313.4 CDDA sectors
File Size : 17.0M
Bit Rate : 325k
Sample Encoding: MPEG audio (layer I, II or III)
Comments :
Title=Tomorrow Awaits
Artist=WAIT
Album=We Are in Transit
Tracknumber=3
Year=2019
Genre=Metal
Discnumber=1



Register


Go to the top of the page
  Insert nick Quick quote
+Quote Post
 
Start new topic
Replies (1 - 4)
post Jul 12 2019, 08:36:25
Post #2

hearer & reader
**************
Group: Металариец
Posts: 7,965
Releases: 103
From: Moscow
On Forums: 11 years 11 months
Thanks: 7467 time(s)
Russian Federation



Сильно Psychedelic. Что-то в этом есть.


Thanks:
Go to the top of the page
  Insert nick Quick quote
+Quote Post
post Jul 12 2019, 13:42:10
Post #3

тебе 28, а ты все реверсами балуешься
***********
Group: Металариец
Posts: 1,707
Releases: 4
On Forums: 11 years 4 weeks
Thanks: 483 time(s)
Russian Federation


ЦИТАТА(AHBAnep @ Jul 12 2019, 10:36:25) *

Сильно Psychedelic. Что-то в этом есть.


Я включил и не смог остановиться - на одном дыхании пролетела запись, хотя реально на 90% из диссонансов состоит.


Thanks:
(1) yuratroll,
Go to the top of the page
  Insert nick Quick quote
+Quote Post
post Jul 13 2019, 13:43:50
Post #4

Group: Подсевший
Posts: 36
Releases: 0
From: Belarus
On Forums: 9 years 1 month
Thanks: 11 time(s)
Belarus


Отличный релиз. Жду полноформатник.
Go to the top of the page
  Insert nick Quick quote
+Quote Post
post Jul 13 2019, 16:52:39
Post #5

Маньяк
**********
Group: Металариец
Posts: 1,437
Releases: 0
On Forums: 10 years 5 months
Thanks: 535 time(s)
Antarctica


По первому прогону не понял, по второму вызвало отторжение.
Go to the top of the page
  Insert nick Quick quote
+Quote Post

Reply to this topicStart new topic
1 User(s) are reading this topic (1 Guests and 0 Anonymous Users)
0 Members:

 



- Lo-Fi Version Support form
Copyrights and abuse reports form
Time is now: 26th August 2019 - 04:16:04