Welcome Guest ( Log In | Register )

> Nightfucker - Nightfucker (2019), Sludge/Doom Metal
post Jul 12 2019, 01:51:33
Post #1

Правь статус, ####!111
**************
Group: Металариец
Posts: 19,790
Releases: 13421
From: Г.Харьков
On Forums: 7 years 6 months
Thanks: 232157 time(s)
Unknown


(IMG:https://metalarea.org/images/audiocovers/2019_Jul/acov_tid324282_thumb.jpg)

*Artist: Nightfucker
*Album: Nightfucker
*Year: 2019
*Genre: Sludge/Doom Metal
*Country: Canada (IMG:https://metalarea.org/forum/style_images/flags/Canada.png)
*Format: mp3@CBR320kbps
*Size: 84MB

Tracklist:
01. Temptation's Curse 08:15
02. Worthless Spirit 07:35
03. Addiction Sentence 09:01
04. Death Beset 11:31
******************************
Total playing time: 36:22



Extended info
Adam Bass, Vocals
See also: Ceremonial Bloodbath, Deathwinds, Radioactive Vomit, ex-Cambodia, ex-Goatsblood, ex-Reikhkrieg, ex-Fear of Tomorrow, ex-Fuck Off!, ex-Hevybevan, ex-Only One Dead
Nick Drums
See also: Radioactive Vomit, ex-Reikhkrieg
Dom Guitars
See also: ex-Moss


Technical info
(IMG:https://metalarea.org/images/spectrogram/2019_Jul/b26f45da9ba8219c705e512d9d2f191e.png)
Input File: 02 - Worthless Spirit.mp3
Channels : 2
Sample Rate : 44100
Precision : 16-bit
Duration : 00:07:35.84 = 20102324 samples = 34187.6 CDDA sectors
File Size : 18.4M
Bit Rate : 323k
Sample Encoding: MPEG audio (layer I, II or III)
Comments :
Title=Worthless Spirit
Artist=Nightfucker
Album=Nightfucker
Tracknumber=2
Year=2019
Genre=Metal
Discnumber=1



Register


Go to the top of the page
  Insert nick Quick quote
+Quote Post
 
Start new topic
Replies (1 - 7)
post Jul 12 2019, 10:01:01
Post #2

Правь статус, ####!111
**************
Group: Металариец
Posts: 44,477
Releases: 687
On Forums: 10 years 6 months
Thanks: 35811 time(s)
Russian Federation


Правильный сладж. Мрачный, медленный саунд, едкий, болезненный вокал.

Послушать было приятственно.


Thanks:
(1) TDM,
Go to the top of the page
  Insert nick Quick quote
+Quote Post
post Jul 12 2019, 20:22:44
Post #3

Cultist
**************
Group: Металариец
Posts: 4,185
Releases: 1324
From: Koenigsberg
On Forums: 12 years 11 months
Thanks: 8391 time(s)
Russian Federation


Ночной ё**рь или е**щий ночь? (IMG:style_emoticons/default/smile4.gif)
Go to the top of the page
  Insert nick Quick quote
+Quote Post
post Jul 13 2019, 13:13:24
Post #4

Правь статус, ####!111
**************
Group: Металариец
Posts: 44,477
Releases: 687
On Forums: 10 years 6 months
Thanks: 35811 time(s)
Russian Federation


Второе.
Go to the top of the page
  Insert nick Quick quote
+Quote Post
post Jul 18 2019, 21:35:18
Post #5

ME[ta]LLOMAN
**************
Group: Металариец
Posts: 4,939
Releases: 3
From: Avdeyevka
On Forums: 13 years 7 months
Thanks: 1888 time(s)
Honduras


ЦИТАТА(vosmidesijatye @ Jul 13 2019, 12:13:24) *
Второе.

а вот - шышъ..
@бака-ночь

з.ы. прям везде слиплось (IMG:style_emoticons/default/headcrab.png)
Go to the top of the page
  Insert nick Quick quote
+Quote Post
post Jul 18 2019, 21:37:03
Post #6

Правь статус, ####!111
**************
Group: Металариец
Posts: 44,477
Releases: 687
On Forums: 10 years 6 months
Thanks: 35811 time(s)
Russian Federation


ЦИТАТА(KVRT @ Jul 19 2019, 00:35:18) *
а вот - шышъ..
@бака-ночь


Да тут можно оба варика смело использовать (IMG:style_emoticons/default/bye.gif)
Go to the top of the page
  Insert nick Quick quote
+Quote Post
post Jul 18 2019, 22:00:06
Post #7

Правь статус, ####!111
**************
Group: Металариец
Posts: 19,790
Releases: 13421
From: Г.Харьков
On Forums: 7 years 6 months
Thanks: 232157 time(s)
Unknown


vosmidesijatye,
ЦИТАТА
Послушать было приятственно.

А спасибки от тебя не наблюдается.Свинство однако.
Go to the top of the page
  Insert nick Quick quote
+Quote Post
post Jul 18 2019, 22:59:15
Post #8

ME[ta]LLOMAN
**************
Group: Металариец
Posts: 4,939
Releases: 3
From: Avdeyevka
On Forums: 13 years 7 months
Thanks: 1888 time(s)
Honduras


ЦИТАТА(vosmidesijatye @ Jul 18 2019, 20:37:03) *
Да тут можно оба варика смело использовать (IMG:style_emoticons/default/bye.gif)

имхо это вашпе - некая анаграмма на "ЩелкунчикЪ" (nut cracker)


Thanks:
Go to the top of the page
  Insert nick Quick quote
+Quote Post

Reply to this topicStart new topic
1 User(s) are reading this topic (1 Guests and 0 Anonymous Users)
0 Members:

 



- Lo-Fi Version Support form
Copyrights and abuse reports form
Time is now: 8th December 2019 - 06:06:33