Welcome Guest ( Log In | Register )

> Releases Upload / Добавление релизов

Добавить релиз тут / Click here to add release
Рекомендованные обменники / Recommended file shares

 
Reply to this topicStart new topic
> Implement - Bleeding Alone (2019), Death Metal
post Jul 12 2019, 02:15:37
Post #1

Правь статус, ####!111
**************
Group: Металариец
Posts: 18,155
Releases: 12278
From: Г.Харьков
On Forums: 7 years 3 months
Thanks: 206977 time(s)
Unknown


(IMG:https://metalarea.org/images/audiocovers/2019_Jul/acov_tid324284_thumb.jpg)

*Artist: Implement
*Album: Bleeding Alone
*Year: 2019
*Genre: Death Metal
*Country: Brazil (IMG:https://metalarea.org/forum/style_images/flags/Brazil.png)
*Format: mp3@CBR320kbps
*Size: 87MB

Tracklist:
1. Wrekage (Intro) 01:09 instrumental
2. Infernum Brothel 02:10
3. Worm in My Brain 02:49
4. Bleeding Alone 03:32
5. Grave of Desire 04:25
6. Pentecostal Insanity 03:23
7. The Keys of Hell 03:32
8. Red Flag 04:42
9. Great Terror 03:55
10. Catacomb 03:41
11. Mirror of Ilusion 04:11
******************************
Total playing time: 37:29



Extended info
Angelo Acácio Drums
Marcio "Oicram" Kizar Guitars
Ivan Morderhay Vocals, Bass


Technical info
(IMG:https://metalarea.org/images/spectrogram/2019_Jul/275a1a145ba1e39cfbb08d1cdb58f1f0.png)
Input File: 05 - Grave of Desire.mp3
Channels : 2
Sample Rate : 44100
Precision : 16-bit
Duration : 00:04:23.51 = 11620835 samples = 19763.3 CDDA sectors
File Size : 10.7M
Bit Rate : 324k
Sample Encoding: MPEG audio (layer I, II or III)
Comments :
Title=Grave of Desire
Artist=Implement
Album=Bleeding Alone
Tracknumber=5
Year=2019
Discnumber=1



Register


Go to the top of the page
  Insert nick Quick quote
+Quote Post

Reply to this topicStart new topic
2 User(s) are reading this topic (2 Guests and 0 Anonymous Users)
0 Members:

 



- Lo-Fi Version Support form
Copyrights and abuse reports form
Time is now: 21st August 2019 - 14:44:25