Welcome Guest ( Log In | Register )

> Releases Upload / Добавление релизов

Добавить релиз тут / Click here to add release
Рекомендованные обменники / Recommended file shares

 
Reply to this topicStart new topic
> I Tore My Eyes Out - Damn! I Hate Everyone At This Party (2019), Slamming Brutal Death Metal
post Jul 12 2019, 03:07:14
Post #1

Правь статус, ####!111
**************
Group: Металариец
Posts: 17,800
Releases: 12065
From: Г.Харьков
On Forums: 7 years 2 months
Thanks: 202687 time(s)
Unknown


(IMG:https://metalarea.org/images/audiocovers/2019_Jul/acov_tid324285_thumb.jpg)

*Artist: I Tore My Eyes Out
*Album: Damn! I Hate Everyone At This Party
*Year: 2019
*Genre: Slamming Brutal Death Metal
*Country: Russian Federation (IMG:https://metalarea.org/forum/style_images/flags/Russian%20Federation.png)
*Format: mp3@CBR320kbps
*Size: 48MB

Tracklist:
1. $lutsmoneydeath (intro) 00:49
2. To the Pit (feat Pertev of Intestine Autopsy) 02:41
3. Killa in Da' Ark (feat Danny of Windigo) 02:35
4. C.I.T.G.O (feat Rori of Machine Anatomy) 01:42
5. Crowdhunt 02:48
6. She call me sicko (feat Isaac of Cyst; Foreskin Decapitation) 02:34
7. Grinder (feat Luke of Throat Shank) 02:57
8. Whore to the Gore (feat Mictain of Path) 03:21
9. Ruthless (outro) 00:45
******************************
Total playing time: 20:12




Extended info
All instrumentals by Daniel Louder


Technical info
(IMG:https://metalarea.org/images/spectrogram/2019_Jul/d69c092a887858ab21e6764287bff1f8.png)
Input File: 05 - Crowdhunt.mp3
Channels : 2
Sample Rate : 44100
Precision : 16-bit
Duration : 00:02:48.55 = 7433099 samples = 12641.3 CDDA sectors
File Size : 6.86M
Bit Rate : 326k
Sample Encoding: MPEG audio (layer I, II or III)
Comments :
Title=Crowdhunt
Artist=I tore My eyes Out
Album=Damn! I Hate Everyone at This Party
Tracknumber=5
Year=2019
Genre=Metal
Discnumber=1



Register


Go to the top of the page
  Insert nick Quick quote
+Quote Post

Reply to this topicStart new topic
2 User(s) are reading this topic (2 Guests and 0 Anonymous Users)
0 Members:

 



- Lo-Fi Version Support form
Copyrights and abuse reports form
Time is now: 22nd July 2019 - 06:20:32