Welcome Guest ( Log In | Register )

> Releases Upload / Добавление релизов

Добавить релиз тут / Click here to add release
Рекомендованные обменники / Recommended file shares

> Aeon Patronist - Mortal Prosternation [ep] (2018), Progressive Death Metal
post Jul 12 2019, 03:50:15
Post #1

Правь статус, ####!111
**************
Group: Металариец
Posts: 17,800
Releases: 12065
From: Г.Харьков
On Forums: 7 years 2 months
Thanks: 202688 time(s)
Unknown


(IMG:https://metalarea.org/images/audiocovers/2019_Jul/acov_tid324286_thumb.jpg)

*Artist: Aeon Patronist
*Album: Mortal Prosternation [ep]
*Year: 2018
*Genre: Progressive Death Metal
*Country: France (IMG:https://metalarea.org/forum/style_images/flags/France.png)
*Format: mp3@CBR320kbps
*Size: 57MB

Tracklist:
1. Intro 00:45
2. Katadesmos 04:18
3. Seeds from a Burning Land 06:25
4. L'ineffable 07:52
5. Through the Paths of Delusion 05:11
******************************
Total playing time: 24:31




Extended info
Tom Leichnig Drums
Alexandre Thiong-Sion Guitars, Vocals
Robin Siestrunck Bass


Technical info
(IMG:https://metalarea.org/images/spectrogram/2019_Jul/725183bb3bcd3fe133406007b5b68f39.png)
Input File: 03 - Seeds from a Burning Land.mp3
Channels : 2
Sample Rate : 44100
Precision : 16-bit
Duration : 00:06:25.38 = 16995214 samples = 28903.4 CDDA sectors
File Size : 15.6M
Bit Rate : 323k
Sample Encoding: MPEG audio (layer I, II or III)
Comments :
Title=Seeds from a Burning Land
Artist=Aeon Patronist
Album=Mortal Prosternation
Tracknumber=3
Year=2018
Genre=Metal
Discnumber=1



Register


Go to the top of the page
  Insert nick Quick quote
+Quote Post
 
Start new topic
Replies (1 - 2)
post Jul 12 2019, 09:47:17
Post #2

Сектант технодро4чер
**************
Group: Металариец
Posts: 5,442
Releases: 143
From: Тимчасово окупована територія
On Forums: 10 years 10 months
Thanks: 5650 time(s)
Ukraine


Прогрессивный Бехемот (IMG:style_emoticons/default/crazy.gif)
Go to the top of the page
  Insert nick Quick quote
+Quote Post
post Jul 14 2019, 00:12:31
Post #3

Это просто место… где все подошло к концу.
**************
Group: Металариец
Posts: 5,551
Releases: 0
From: Страны Мамонтов
On Forums: 12 years 5 months
Thanks: 1956 time(s)
Antarctica


ЦИТАТА(neoatheist @ Jul 12 2019, 12:47:17) *
Прогрессивный Бехемот (IMG:style_emoticons/default/crazy.gif)

Это плохо или хорошо?
Go to the top of the page
  Insert nick Quick quote
+Quote Post

Reply to this topicStart new topic
2 User(s) are reading this topic (2 Guests and 0 Anonymous Users)
0 Members:

 



- Lo-Fi Version Support form
Copyrights and abuse reports form
Time is now: 22nd July 2019 - 06:53:31