Welcome Guest ( Log In | Register )

> Releases Upload / Добавление релизов

Добавить релиз тут / Click here to add release
Рекомендованные обменники / Recommended file shares

> Alkymenia - Libertad (2019), Thrash Metal
post Jul 12 2019, 05:25:19
Post #1

Правь статус, ####!111
**************
Group: Металариец
Posts: 18,126
Releases: 12260
From: Г.Харьков
On Forums: 7 years 3 months
Thanks: 206560 time(s)
Unknown


(IMG:https://metalarea.org/images/audiocovers/2019_Jul/acov_tid324287_thumb.jpg)

*Artist: Alkymenia
*Album: Libertad
*Year: 2019
*Genre: Thrash Metal
*Country: Brazil (IMG:https://metalarea.org/forum/style_images/flags/Brazil.png)
*Format: mp3@CBR320kbps
*Size: 85MB

Tracklist:
1. Dancing In Hell 03:54
2. Another World Is Possible 03:34
3. Sus 03:21
4. Dead Birds 05:04
5. We Are Not Made By Emotions 03:40
6. Being Who I Am 03:03
7. Mediocre Games 03:26
8. Day By Day 03:08
9. Wild And Cold 03:07
10. Arguments Of Shit 03:36
******************************
Total playing time: 35:53

Preview 1


Extended info
Lalo Bass, Vocals
See also: ex-Kinto Karma, ex-Psych Acid
Dennis Kreimer Drums
Sandro Silva Guitars
See also: Kavla, ex-Kinto Karma



Technical info
(IMG:https://metalarea.org/images/spectrogram/2019_Jul/8d8ea0c3914ecce22193306338d8b16c.png)
Input File: 02 - Another World Is Possible.mp3
Channels : 2
Sample Rate : 44100
Precision : 16-bit
Duration : 00:03:34.40 = 9454952 samples = 16079.9 CDDA sectors
File Size : 8.93M
Bit Rate : 333k
Sample Encoding: MPEG audio (layer I, II or III)
Comments :
Title=Another World Is Possible
Artist=Alkymenia
Album=Libertad
Tracknumber=2
Year=2019
Genre=Metal
Discnumber=1



Register


Go to the top of the page
  Insert nick Quick quote
+Quote Post
 
Start new topic
Replies (1 - 1)
post Jul 12 2019, 10:42:04
Post #2

MDM-Thrash Metal
**************
Group: Металариец
Posts: 8,529
Releases: 564
From: Одесса
On Forums: 12 years 1 week
Thanks: 16536 time(s)
Ukraine


- Preview of all 10 tracks
Go to the top of the page
  Insert nick Quick quote
+Quote Post

Reply to this topicStart new topic
1 User(s) are reading this topic (1 Guests and 0 Anonymous Users)
0 Members:

 



- Lo-Fi Version Support form
Copyrights and abuse reports form
Time is now: 19th August 2019 - 05:36:03