Welcome Guest ( Log In | Register )

> Releases Upload / Добавление релизов

Добавить релиз тут / Click here to add release
Рекомендованные обменники / Recommended file shares

> Dark Colony - Dark Colony (2019), Death Metal
post Jul 12 2019, 05:47:51
Post #1

Правь статус, ####!111
**************
Group: Металариец
Posts: 17,800
Releases: 12065
From: Г.Харьков
On Forums: 7 years 2 months
Thanks: 202687 time(s)
Unknown


(IMG:https://metalarea.org/images/audiocovers/2019_Jul/acov_tid324288_thumb.jpg)

*Artist: Dark Colony
*Album: Dark Colony
*Year: 2019
*Genre: Death Metal
*Country: Switzerland (IMG:https://metalarea.org/forum/style_images/flags/Switzerland.png)
*Format: mp3@CBR320kbps
*Size: 99MB

Tracklist:
01. Arrival (Intro)
02. Dimension Gate
03. Condemned By The Holy Court
04. Gemini
05. The Vector
06. Infected By The Evil
07. Creation Of Carnage
08. Intergalactic Chaos
09. Voices Of Death
10. Planet Conqueror
11. Dark Colony
12. Endless Suffering
******************************
Total playing time: 42:50



Extended info
Manfred Schwaller - Drums
Silvio Riedo - Guitar
Phil Veluz - Vocals
Mathias Burri - Bass
Julius Menth - Guitar



Technical info
(IMG:https://metalarea.org/images/spectrogram/2019_Jul/85fb8f02eed367f8a5e5d5d333a7bceb.png)
Input File: 6 - Infected By The Evil.mp3
Channels : 2
Sample Rate : 44100
Precision : 16-bit
Duration : 00:04:23.33 = 11612765 samples = 19749.6 CDDA sectors
File Size : 10.6M
Bit Rate : 322k
Sample Encoding: MPEG audio (layer I, II or III)
Comments :
Title=Infected By The Evil
Artist=Dark Colony
Album=Dark Colony
Tracknumber=6
Year=2019
Genre=Metal
Discnumber=1



Register


Go to the top of the page
  Insert nick Quick quote
+Quote Post
 
Start new topic
Replies (1 - 1)
post Jul 12 2019, 15:52:14
Post #2

Правь статус, ####!111
**************
Group: Металариец
Posts: 17,800
Releases: 12065
From: Г.Харьков
On Forums: 7 years 2 months
Thanks: 202687 time(s)
Unknown


Cloud Mail 320
Register
Go to the top of the page
  Insert nick Quick quote
+Quote Post

Reply to this topicStart new topic
1 User(s) are reading this topic (1 Guests and 0 Anonymous Users)
0 Members:

 



- Lo-Fi Version Support form
Copyrights and abuse reports form
Time is now: 22nd July 2019 - 06:21:37