Welcome Guest ( Log In | Register )

> Releases Upload / Добавление релизов

Добавить релиз тут / Click here to add release
Рекомендованные обменники / Recommended file shares

> Frostmoon Eclipse - The Legacy II [compilation] (2019), Black Metal
post Jul 12 2019, 09:09:17
Post #1

the faceless one
Group Icon
Group: S-moderation team
Posts: 9,210
Releases: 1880
On Forums: 11 years 2 weeks
Thanks: 110497 time(s)
Russian Federation


(IMG:http://metalarea.org/images/audiocovers/2019_Jul/acov_tid324289_thumb.jpg)

*Artist: Frostmoon Eclipse
*Album: The Legacy II [compilation]
*Year: 2019
*Genre: Black Metal
*Country: Italy (IMG:http://metalarea.org/forum/style_images/flags/Italy.png)
*Format: mp3@CBR320kbps
*Size: 165MB

Tracklist:
1. Of A Dead Universe 05:39
2. Devoured 05:48
3. A Ghost In Half Light 05:10
4. The Idle Hour 07:53
5. Newborn Misery 05:22
6. Shores Of Silence 06:52
7. In The Vault 06:51
8. The Thing On The Doorstep 08:47
9. Providence, 1937-03-15 03:04
10. Corridors (Live) 08:01
11. Let's Fucking Die (Impaled Nazarene Cover) 02:33
12. Beyond The Great Vast Forest (Emperor Cover) 06:00
******************************
Total playing time: 1:12:00



Extended info
Black Tears Of Death, March 27th.

Выход данной компиляции, содержащей B-sides треки, ранее неизданный материал и треки со сплит-альбомов, знаменует возобновление сотрудничества между Black Tears Of Death и музыкантами спустя двадцать лет после выпуска дебютного EP "Supreme Triumph In Black".


Technical info
(IMG:http://metalarea.org/images/spectrogram/2019_Jul/1febf0b764171ba532a8bf121c0bb1ad.png)
Input File: Frostmoon Eclipse - 05 - Newborn Misery.mp3
Channels : 2
Sample Rate : 44100
Precision : 16-bit
Duration : 00:05:22.80 = 14235304 samples = 24209.7 CDDA sectors
File Size : 12.9M
Bit Rate : 320k
Sample Encoding: MPEG audio (layer I, II or III)
Comments :
Title=Newborn Misery
Artist=Frostmoon Eclipse
Album=The Legacy II
Tracknumber=05
Year=2019
Genre=Black Metal



Register


Go to the top of the page
  Insert nick Quick quote
+Quote Post
 
Start new topic
Replies (1 - 3)
post Jul 12 2019, 16:08:08    Сейчас играет: Sodom - The Wolf and the Lamb
Post #2

antithesis
**************
Group: Металариец
Posts: 2,770
Releases: 31
From: VRN
On Forums: 9 years 3 months
Thanks: 1608 time(s)
Russian Federation


о, эт крутые перцы (хотя не ожидал от них ковёр на Impaled Nazarene) (IMG:style_emoticons/default/20.gif)
Go to the top of the page
  Insert nick Quick quote
+Quote Post
post Jul 24 2019, 19:23:05
Post #3

Full-of-Hate
**************
Group: Металариец
Posts: 3,131
Releases: 0
From: Moscow
On Forums: 10 years 1 month
Thanks: 2574 time(s)
Russian Federation


Шляпная группа и никому не нужная компиляция.
Go to the top of the page
  Insert nick Quick quote
+Quote Post
post Jul 24 2019, 22:05:08
Post #4

Правь статус, ####!111
**************
Group: Металариец
Posts: 42,464
Releases: 644
On Forums: 10 years 2 months
Thanks: 33374 time(s)
Russian Federation


Слышал их как то на сборнике - трибьюте Judas Iscariot, да пару песен на трубе - действительно ничего особенного, ординарная чернуха.
Go to the top of the page
  Insert nick Quick quote
+Quote Post

Reply to this topicStart new topic
1 User(s) are reading this topic (1 Guests and 0 Anonymous Users)
0 Members:

 



- Lo-Fi Version Support form
Copyrights and abuse reports form
Time is now: 26th August 2019 - 06:22:40