Welcome Guest ( Log In | Register )

 
Reply to this topicStart new topic
> Mortier - Trauma [ep] (2019), Sludge/Doom Metal
post Jul 12 2019, 10:28:53
Post #1

Serpent Doom
**************
Group: Металариец
Posts: 2,124
Releases: 654
From: Moscow region
On Forums: 11 years 3 months
Thanks: 11729 time(s)
Russian Federation


(IMG:http://metalarea.org/images/audiocovers/2019_Jul/acov_tid324294_thumb.jpg)

*Artist: Mortier
*Album: Trauma [ep]
*Year: 2019
*Genre: Sludge/Doom Metal
*Country: France (IMG:http://metalarea.org/forum/style_images/flags/France.png)
*Format: mp3@CBR320kbps
*Size: 60MB

Tracklist:
1. Trauma 08:42
2. ...Of Lead And Steel 08:32
3. Downfall 07:30
******************************
Total playing time: 24:44



Technical info
(IMG:http://metalarea.org/images/spectrogram/2019_Jul/85e4588f7e6cef008ae366e672784ca2.png)
Input File: Mortier - Trauma - 03 Downfall.mp3
Channels : 2
Sample Rate : 44100
Precision : 16-bit
Duration : 00:07:30.58 = 19870754 samples = 33793.8 CDDA sectors
File Size : 18.2M
Bit Rate : 323k
Sample Encoding: MPEG audio (layer I, II or III)
Comments :
Title=Downfall
Artist=Mortier
Album=Trauma
Tracknumber=3
Year=2019



Register


Go to the top of the page
  Insert nick Quick quote
+Quote Post

Reply to this topicStart new topic
1 User(s) are reading this topic (1 Guests and 0 Anonymous Users)
0 Members:

 



- Lo-Fi Version Support form
Copyrights and abuse reports form
Time is now: 14th December 2019 - 21:49:22