Welcome Guest ( Log In | Register )

> Cleanse The Destroyers - Cleanse The Destroyers (2019), Death Metal
post Jul 12 2019, 13:07:28
Post #1

Serial Uploader
Group Icon
Group: V.I.P
Posts: 36,154
Releases: 34353
From: Lithuania
On Forums: 11 years 3 months
Thanks: 398497 time(s)
Lithuania


(IMG:https://metalarea.org/images/audiocovers/2019_Jul/acov_tid324299_thumb.jpg)

*Artist: Cleanse The Destroyers
*Album: Cleanse The Destroyers
*Year: 2019
*Genre: Death Metal
*Country: United States (IMG:https://metalarea.org/forum/style_images/flags/United%20States.png)
*Format: mp3@CBR320kbps
*Size: 69MB

Tracklist:
01. Monolithic Dialogues 02:59
02. 24 Ridges 03:54
03. Calloused, Singed, And Severed 02:09
04. The Apparition (Of Phobos Forest) 03:04
05. Murder Authority 03:04
06. A Stumble Across the Trail of the Dead 03:41
07. Ruby Rivers and Clouded Eyes 04:06
08. Shrouds of Aeon 04:25
******************************
Total playing time: 27:22



Technical info
(IMG:https://metalarea.org/images/spectrogram/2019_Jul/baa66220fd0bba9dea28440c9fc6f497.png)
Input File: 02. 24 Ridges.mp3
Channels : 2
Sample Rate : 44100
Precision : 16-bit
Duration : 00:03:54.52 = 10342200 samples = 17588.8 CDDA sectors
File Size : 10.2M
Bit Rate : 347k
Sample Encoding: MPEG audio (layer I, II or III)
Comments :
Title=24 Ridges
Artist=Cleanse the Destroyers
Album=Cleanse the Destroyers
Tracknumber=2/8
Year=2019



Register


Go to the top of the page
  Insert nick Quick quote
+Quote Post
 
Start new topic
Replies (1 - 2)
post Jul 12 2019, 17:55:31
Post #2

hearer & reader
**************
Group: Металариец
Posts: 8,045
Releases: 104
From: Moscow
On Forums: 12 years 2 weeks
Thanks: 7527 time(s)
Russian Federation



Дескор какой-то с примесями. Жутко исполненный и записанный.


Thanks:
(1) Andrew,
Go to the top of the page
  Insert nick Quick quote
+Quote Post
post Jul 12 2019, 21:42:44
Post #3

MDM-Thrash Metal
**************
Group: Металариец
Posts: 8,711
Releases: 609
From: Одесса
On Forums: 12 years 1 month
Thanks: 17478 time(s)
Ukraine


Go to the top of the page
  Insert nick Quick quote
+Quote Post

Reply to this topicStart new topic
1 User(s) are reading this topic (1 Guests and 0 Anonymous Users)
0 Members:

 



- Lo-Fi Version Support form
Copyrights and abuse reports form
Time is now: 22nd September 2019 - 00:51:16