Welcome Guest ( Log In | Register )

> Releases Upload / Добавление релизов

Добавить релиз тут / Click here to add release
Рекомендованные обменники / Recommended file shares

> Chaotic Dimenzions - Ad Penumbra (2019), Black Metal
post Jul 12 2019, 13:16:49
Post #1

Serial Uploader
Group Icon
Group: V.I.P
Posts: 35,816
Releases: 34022
From: Lithuania
On Forums: 11 years 2 months
Thanks: 393161 time(s)
Lithuania


(IMG:https://metalarea.org/images/audiocovers/2019_Jul/acov_tid324301_thumb.jpg)

*Artist: Chaotic Dimenzions
*Album: Ad Penumbra
*Year: 2019
*Genre: Black Metal
*Country: Chile (IMG:https://metalarea.org/forum/style_images/flags/Chile.png)
*Format: mp3@CBR320kbps
*Size: 103MB

Tracklist:
01. Through the Darkest Maze
02. Destroyer of Wisdom
03. Penumbra
04. Portrait of an Isolated Coma
05. Mirrors of Anger
06. Actus Mortis
******************************
Total playing time: 44:51



Technical info
(IMG:https://metalarea.org/images/spectrogram/2019_Jul/4787adbe620eab28fda8ee4de131dc0a.png)
Input File: 02. Destroyers of Wisdom.mp3
Channels : 2
Sample Rate : 44100
Precision : 16-bit
Duration : 00:04:13.27 = 11169383 samples = 18995.5 CDDA sectors
File Size : 10.9M
Bit Rate : 343k
Sample Encoding: MPEG audio (layer I, II or III)
Comments :
Title=Destroyers of Wisdom
Artist=Chaotic Dimenzions
Album=Ad Penumbra
Tracknumber=2/7
Year=2019



Register


Go to the top of the page
  Insert nick Quick quote
+Quote Post
 
Start new topic
Replies (1 - 1)
post Jul 21 2019, 19:37:21
Post #2

Мегаманьяк
***********
Group: Металариец
Posts: 1,532
Releases: 24
From: Spain
On Forums: 11 years 11 months
Thanks: 1211 time(s)
Spain


Register
Go to the top of the page
  Insert nick Quick quote
+Quote Post

Reply to this topicStart new topic
1 User(s) are reading this topic (1 Guests and 0 Anonymous Users)
0 Members:

 



- Lo-Fi Version Support form
Copyrights and abuse reports form
Time is now: 19th August 2019 - 07:34:13