Welcome Guest ( Log In | Register )

> Releases Upload / Добавление релизов

Добавить релиз тут / Click here to add release
Рекомендованные обменники / Recommended file shares

> Intrinsic Souls - Voices Of Mind (2019), Melodic Power Metal
post Jul 12 2019, 13:28:45
Post #1

Serial Uploader
Group Icon
Group: V.I.P
Posts: 35,872
Releases: 34079
From: Lithuania
On Forums: 11 years 2 months
Thanks: 394033 time(s)
Lithuania


(IMG:https://metalarea.org/images/audiocovers/2019_Jul/acov_tid324302_thumb.jpg)

*Artist: Intrinsic Souls
*Album: Voices Of Mind
*Year: 2019
*Genre: Melodic Power Metal
*Country: Mexico (IMG:https://metalarea.org/forum/style_images/flags/Mexico.png)
*Format: mp3@CBR320kbps
*Size: 117MB

Tracklist:
01. Introduccion
02. Escape
03. Fighter
04. Awake
05. Sweet Sorrow
06. Feel Your Soul
07. When I Find You
08. Agony
09. Voices Of Mind
******************************
Total playing time: 50:54

(IMG:https://metalarea.org/images/youtube.png)

Technical info
(IMG:https://metalarea.org/images/spectrogram/2019_Jul/901376c35f710985caaa246ec2159b2f.png)
Input File: 02. Escape.mp3
Channels : 2
Sample Rate : 44100
Precision : 16-bit
Duration : 00:06:05.11 = 16101351 samples = 27383.2 CDDA sectors
File Size : 15.2M
Bit Rate : 334k
Sample Encoding: MPEG audio (layer I, II or III)
Comments :
Title=Escape
Artist=Intrinsic Souls
Album=Voices of Mind
Tracknumber=2/9
Year=2019



Register


Go to the top of the page
  Insert nick Quick quote
+Quote Post
 
Start new topic
Replies (1 - 1)
post Jul 27 2019, 16:25:07
Post #2

Литр
*
Group: Подсевший
Posts: 87
Releases: 2
On Forums: 9 years 1 month
Thanks: 63 time(s)
Russian Federation


FLAC: https://yadi.sk/d/B7jNb22WfZhUFw
Go to the top of the page
  Insert nick Quick quote
+Quote Post

Reply to this topicStart new topic
1 User(s) are reading this topic (1 Guests and 0 Anonymous Users)
0 Members:

 



- Lo-Fi Version Support form
Copyrights and abuse reports form
Time is now: 26th August 2019 - 03:25:54