Welcome Guest ( Log In | Register )

 
Reply to this topicStart new topic
> Animus Stench - Lynching The Lunacy (2019), Death Metal
post Jul 12 2019, 13:44:28
Post #1

Serial Uploader
Group Icon
Group: V.I.P
Posts: 36,616
Releases: 34804
From: Lithuania
On Forums: 11 years 6 months
Thanks: 407714 time(s)
Lithuania


(IMG:https://metalarea.org/images/audiocovers/2019_Jul/acov_tid324303_thumb.jpg)

*Artist: Animus Stench
*Album: Lynching The Lunacy
*Year: 2019
*Genre: Death Metal
*Country: United States (IMG:https://metalarea.org/forum/style_images/flags/United%20States.png)
*Format: mp3@CBR320kbps
*Size: 92MB

Tracklist:
01. I. Peperit, II. Exitium 01:06
02. Driving Nails into Flesh 04:04
03. Lynching the Lunacy 04:37
04. Burn in Hell With Me 04:17
05. Unpure Divination 03:50
06. Rotting Ways of Life 05:48
07. Dream With A Cost 04:22
08. I, Despair 04:22
09. The Seven Years 06:52
******************************
Total playing time: 39:18



Technical info
(IMG:https://metalarea.org/images/spectrogram/2019_Jul/b505c3f5cb36e721443fde2a18b8933c.png)
Input File: 02. Driving Nails Into Flesh.mp3
Channels : 2
Sample Rate : 44100
Precision : 16-bit
Duration : 00:04:04.10 = 10764986 samples = 18307.8 CDDA sectors
File Size : 10.0M
Bit Rate : 328k
Sample Encoding: MPEG audio (layer I, II or III)
Comments :
Title=Driving Nails Into Flesh
Artist=Animus Stench
Album=Lynching the Lunacy
Tracknumber=2/9
Year=2019



Register


Go to the top of the page
  Insert nick Quick quote
+Quote Post

Reply to this topicStart new topic
1 User(s) are reading this topic (1 Guests and 0 Anonymous Users)
0 Members:

 



- Lo-Fi Version Support form
Copyrights and abuse reports form
Time is now: 14th December 2019 - 15:02:03