Welcome Guest ( Log In | Register )

> Shadowstrike - Legends Of Human Spirit (2019), Power Metal
post Jul 12 2019, 14:06:08
Post #1

Serial Uploader
Group Icon
Group: V.I.P
Posts: 36,075
Releases: 34276
From: Lithuania
On Forums: 11 years 3 months
Thanks: 397605 time(s)
Lithuania


(IMG:https://metalarea.org/images/audiocovers/2019_Jul/acov_tid324305_thumb.jpg)

*Artist: Shadowstrike
*Album: Legends Of Human Spirit
*Year: 2019
*Genre: Power Metal
*Country: United States (IMG:https://metalarea.org/forum/style_images/flags/United%20States.png)
*Format: mp3@CBR320kbps
*Size: 155MB

Tracklist:
01. Heart for Yearning Journey 07:01
02. Ascension 01:35
03. Fly with Me 04:52
04. Fields of Valour 06:08
05. The Fiery Seas and Icy Winds 08:11
06. Where Sleeping Gods Await 07:39
07. Forever as One 05:07
08. Voice in the Night 07:47
09. A Dream of Stars 06:31
10. Gales of Winter 10:15
******************************
Total playing time: 1:05:06




(IMG:https://metalarea.org/images/youtube.png)

Technical info
(IMG:https://metalarea.org/images/spectrogram/2019_Jul/461718abc01513eba128117cd0410224.png)
Input File: 02. Ascension.mp3
Channels : 2
Sample Rate : 44100
Precision : 16-bit
Duration : 00:01:35.15 = 4195939 samples = 7135.95 CDDA sectors
File Size : 4.40M
Bit Rate : 370k
Sample Encoding: MPEG audio (layer I, II or III)
Comments :
Title=Ascension
Artist=ShadowStrike
Album=Legends of Human Spirit
Tracknumber=2/10
Year=2019



Register


Go to the top of the page
  Insert nick Quick quote
+Quote Post
 
Start new topic
Replies (1 - 3)
post Jul 12 2019, 17:50:03
Post #2

hearer & reader
**************
Group: Металариец
Posts: 8,024
Releases: 104
From: Moscow
On Forums: 12 years 1 week
Thanks: 7515 time(s)
Russian Federation


ЦИТАТА
Influences
Aquaria, Dragoforce, Elvenking, MUSE, Dream Theater, Kamelot, ENGAGE!, Power Quest
Go to the top of the page
  Insert nick Quick quote
+Quote Post
post Jul 27 2019, 16:26:25
Post #3

Литр
*
Group: Подсевший
Posts: 90
Releases: 2
On Forums: 9 years 2 months
Thanks: 87 time(s)
Russian Federation


FLAC: https://yadi.sk/d/c2LUhpM3fjmEZA
Go to the top of the page
  Insert nick Quick quote
+Quote Post
post Aug 10 2019, 09:21:08
Post #4

Волк без яблока
**************
Group: Металариец
Posts: 13,318
Releases: 107
From: Санкт-Петербург
On Forums: 12 years 11 months
Thanks: 15218 time(s)
Russian Federation


ЦИТАТА(AHBAnep @ 12th July 2019 - 19:50:03) *
Dragoforce

Им бы, может, и хотелось, но скорее именно Power Quest.
Go to the top of the page
  Insert nick Quick quote
+Quote Post

Reply to this topicStart new topic
2 User(s) are reading this topic (2 Guests and 0 Anonymous Users)
0 Members:

 



- Lo-Fi Version Support form
Copyrights and abuse reports form
Time is now: 16th September 2019 - 01:01:48