Welcome Guest ( Log In | Register )

 
Reply to this topicStart new topic
> Lucero Cian - Viento Lejano (2019), Instrumental/Progressive Metal
post Jul 12 2019, 14:22:29
Post #1

Serial Uploader
Group Icon
Group: V.I.P
Posts: 36,586
Releases: 34775
From: Lithuania
On Forums: 11 years 6 months
Thanks: 407182 time(s)
Lithuania


(IMG:https://metalarea.org/images/audiocovers/2019_Jul/acov_tid324308_thumb.jpg)

*Artist: Lucero Cian
*Album: Viento Lejano
*Year: 2019
*Genre: Instrumental/Progressive Metal
*Country: Spain (IMG:https://metalarea.org/forum/style_images/flags/Spain.png)
*Format: mp3@CBR320kbps
*Size: 118MB

Tracklist:
01. Evolucion
02. Siganme los buenos
03. Bailes Tribales
04. El Hijo Del Predicador
05. Recuerdos
06. Planeta Aural
07. Viento Lejano
08. Tres Lunas
09. Mirada Misteriosa
10. Y con el juego que
******************************
Total playing time: 51:23

Technical info
(IMG:https://metalarea.org/images/spectrogram/2019_Jul/04a5eabcd6d356464a6dcde59f483290.png)
Input File: 02. Siganme los buenos.mp3
Channels : 2
Sample Rate : 44100
Precision : 16-bit
Duration : 00:04:19.20 = 11430896 samples = 19440.3 CDDA sectors
File Size : 11.1M
Bit Rate : 344k
Sample Encoding: MPEG audio (layer I, II or III)
Comments :
Title=Siganme los buenos
Artist=Lucero Cian
Album=Viento Lejano
Tracknumber=2/10
Year=2019



Register


Go to the top of the page
  Insert nick Quick quote
+Quote Post

Reply to this topicStart new topic
1 User(s) are reading this topic (1 Guests and 0 Anonymous Users)
0 Members:

 



- Lo-Fi Version Support form
Copyrights and abuse reports form
Time is now: 9th December 2019 - 06:49:50