Welcome Guest ( Log In | Register )

> Releases Upload / Добавление релизов

Добавить релиз тут / Click here to add release
Рекомендованные обменники / Recommended file shares

> Quantum Solaris - The Power Of Greed [ep] (2019), Melodic Death Metal
post Jul 12 2019, 14:30:42
Post #1

Serial Uploader
Group Icon
Group: V.I.P
Posts: 35,639
Releases: 33847
From: Lithuania
On Forums: 11 years 1 month
Thanks: 389940 time(s)
Lithuania


(IMG:https://metalarea.org/images/audiocovers/2019_Jul/acov_tid324309_thumb.jpg)

*Artist: Quantum Solaris
*Album: The Power Of Greed [ep]
*Year: 2019
*Genre: Melodic Death Metal
*Country: Denmark (IMG:https://metalarea.org/forum/style_images/flags/Denmark.png)
*Format: mp3@CBR320kbps
*Size: 61MB

Tracklist:
01. Amerikarma
02. The Storm
03. Solar Exterminum
04. The Power of Greed
******************************
Total playing time: 26:33



Technical info
(IMG:https://metalarea.org/images/spectrogram/2019_Jul/db92240ee1999285951296f12476060f.png)
Input File: 02. The Storm.mp3
Channels : 2
Sample Rate : 44100
Precision : 16-bit
Duration : 00:06:51.61 = 18152045 samples = 30870.8 CDDA sectors
File Size : 17.3M
Bit Rate : 336k
Sample Encoding: MPEG audio (layer I, II or III)
Comments :
Title=The Storm
Artist=Quantum Solaris
Album=The Power of Greed
Tracknumber=2/4
Year=2019



Register


Go to the top of the page
  Insert nick Quick quote
+Quote Post
 
Start new topic
Replies (1 - 3)
post Jul 12 2019, 17:36:01
Post #2

hearer & reader
**************
Group: Металариец
Posts: 7,905
Releases: 103
From: Moscow
On Forums: 11 years 10 months
Thanks: 7416 time(s)
Russian Federation



не дозрели


Thanks:
Go to the top of the page
  Insert nick Quick quote
+Quote Post
post Jul 12 2019, 21:33:09
Post #3

MDM-Thrash Metal
**************
Group: Металариец
Posts: 8,356
Releases: 499
From: Одесса
On Forums: 11 years 11 months
Thanks: 15838 time(s)
Ukraine


ЦИТАТА(AHBAnep @ Jul 12 2019, 19:36:01) *
не дозрели

Ну...сыграно неплохо, только как для мелодеза - медленновато. Побыстрее, поразнообразнее и было бы все очень даже и неплохо.
Go to the top of the page
  Insert nick Quick quote
+Quote Post
post Jul 14 2019, 00:09:45
Post #4

Это просто место… где все подошло к концу.
**************
Group: Металариец
Posts: 5,551
Releases: 0
From: Страны Мамонтов
On Forums: 12 years 5 months
Thanks: 1956 time(s)
Antarctica


ЦИТАТА(Andrew @ Jul 13 2019, 00:33:09) *
Ну...сыграно неплохо, только как для мелодеза - медленновато. Побыстрее, поразнообразнее и было бы все очень даже и неплохо.

medlenniy neraznoobrazny death metal


Thanks:
(1) Metalass,
Go to the top of the page
  Insert nick Quick quote
+Quote Post

Reply to this topicStart new topic
2 User(s) are reading this topic (2 Guests and 0 Anonymous Users)
0 Members:

 



- Lo-Fi Version Support form
Copyrights and abuse reports form
Time is now: 22nd July 2019 - 06:20:53