Welcome Guest ( Log In | Register )

> Releases Upload / Добавление релизов

Добавить релиз тут / Click here to add release
Рекомендованные обменники / Recommended file shares

 
Reply to this topicStart new topic
> Kairos - Queen Of The Hill (2019), Heavy Metal
post Jul 12 2019, 16:19:46
Post #1

Правь статус, ####!111
**************
Group: Металариец
Posts: 18,126
Releases: 12260
From: Г.Харьков
On Forums: 7 years 3 months
Thanks: 206581 time(s)
Unknown


(IMG:https://metalarea.org/images/audiocovers/2019_Jul/acov_tid324314_thumb.jpg)

*Artist: Kairos
*Album: Queen Of The Hill
*Year: 2019
*Genre: Heavy Metal
*Country: Sweden (IMG:https://metalarea.org/forum/style_images/flags/Sweden.png)
*Format: mp3@CBR320kbps
*Size: 103MB

Tracklist:
01. Reckless Dedication
02. Strike While the Iron Is Hot
03. Mr. Nocturne
04. Silver Heart
05. Japanese Steel
06. Merciless Domine
07. Enchanted Age
08. Queen of the Hill
******************************
Total playing time: 45:04



Extended info
Erik Andersson Drums
Tom Hamström Vocals
Carl Rudhede Guitars (lead) (2012-present)
Viktor Envall Bass (2014-present)
See also: ex-Resurrector
Emil Beaird Guitar (2014-present)



Technical info
(IMG:https://metalarea.org/images/spectrogram/2019_Jul/a270dc4c5bb35f2ed3dd0fb0f93b794e.png)
Input File: 3 - Mr. Nocturne.mp3
Channels : 2
Sample Rate : 44100
Precision : 16-bit
Duration : 00:05:38.20 = 14914576 samples = 25364.9 CDDA sectors
File Size : 13.6M
Bit Rate : 321k
Sample Encoding: MPEG audio (layer I, II or III)
Comments :
Title=Mr. Nocturne
Artist=Kairos
Album=Queen Of The Hill
Tracknumber=3
Year=2019
Genre=Heavy Metal
Discnumber=1



Register


Go to the top of the page
  Insert nick Quick quote
+Quote Post
post Jul 12 2019, 17:13:13
Post #2

Правь статус, ####!111
**************
Group: Металариец
Posts: 18,126
Releases: 12260
From: Г.Харьков
On Forums: 7 years 3 months
Thanks: 206581 time(s)
Unknown


Cloud Mail 320
Register


Go to the top of the page
  Insert nick Quick quote
+Quote Post
post Jul 12 2019, 21:13:53
Post #3

MDM-Thrash Metal
**************
Group: Металариец
Posts: 8,529
Releases: 564
From: Одесса
On Forums: 12 years 1 week
Thanks: 16547 time(s)
Ukraine


Ох какой нафффталинище! С первых же аккордов переносишься годков этак на 30 назад. Хороший, приятный ламповый материал. (IMG:style_emoticons/default/20.gif)


Go to the top of the page
  Insert nick Quick quote
+Quote Post
post Jul 13 2019, 19:19:26
Post #4

Снаружи твердый, внутри мягкий
****
Group: Металариец
Posts: 377
Releases: 26
From: Россия
On Forums: 11 years 5 months
Thanks: 352 time(s)
Russian Federation


Помню,в прошлом году они здорово выступили на разогреве у Удо в Ярославле. Все по старой школе и с душой. (IMG:style_emoticons/default/20.gif)
Go to the top of the page
  Insert nick Quick quote
+Quote Post
post Jul 13 2019, 20:49:56
Post #5

Шесть Литров
******
Group: Металариец
Posts: 536
Releases: 0
On Forums: 10 years 1 month
Thanks: 125 time(s)
Ukraine


Хороший, крепкий альбом в духе 80х, спасибо за релиз!!
Go to the top of the page
  Insert nick Quick quote
+Quote Post
post Jul 24 2019, 22:32:10
Post #6

21st Century Schizoid Man
**************
Group: Металариец
Posts: 5,925
Releases: 71
From: Moscow
On Forums: 11 years 3 months
Thanks: 4585 time(s)
Russian Federation


Какой классный альбом! Тот самый случай, когда не поворачивается назвать материал вторичным. Всё в лучших традициях золотого века хэви.


Thanks:
Go to the top of the page
  Insert nick Quick quote
+Quote Post

Reply to this topicStart new topic
1 User(s) are reading this topic (1 Guests and 0 Anonymous Users)
0 Members:

 



- Lo-Fi Version Support form
Copyrights and abuse reports form
Time is now: 19th August 2019 - 11:49:18