Welcome Guest ( Log In | Register )

> Releases Upload / Добавление релизов

Добавить релиз тут / Click here to add release
Рекомендованные обменники / Recommended file shares

> Shoot The Messiah - Kill All Gods (2019), Death/Thrash Metal
post Jul 12 2019, 16:36:15
Post #1

Правь статус, ####!111
**************
Group: Металариец
Posts: 18,206
Releases: 12314
From: Г.Харьков
On Forums: 7 years 3 months
Thanks: 207835 time(s)
Unknown


(IMG:https://metalarea.org/images/audiocovers/2019_Jul/acov_tid324315_thumb.jpg)

*Artist: Shoot The Messiah
*Album: Kill All Gods
*Year: 2019
*Genre: Death/Thrash Metal
*Country: Netherlands (IMG:https://metalarea.org/forum/style_images/flags/Netherlands.png)
*Format: mp3@CBR320kbps
*Size: 113MB

Tracklist:
01. Oblivion Walker
02. Arise
03. Shoot the Messiah
04. Adducam Infernum
05. Here Dead We Lie
06. Locust of the Abyss
07. Civiltrapped
08. Morgellon
******************************
Total playing time: 49:40



Extended info
Michael Lubbersen Bass, Vocals (backing) (2015-present)
See also: ex-Morgellon
Simon Hofman Drums (2015-present)
Serge van der Haar Guitars (lead) (2015-present)
See also: ex-Morgellon
Leroy de Raad Vocals, Guitars (rhythm) (2015-present)
See also: ex-Morgellon


Technical info
(IMG:https://metalarea.org/images/spectrogram/2019_Jul/e26425e36911709959610f564ac03f82.png)
Input File: 3 - Shoot the Messiah.mp3
Channels : 2
Sample Rate : 44100
Precision : 16-bit
Duration : 00:08:34.43 = 22686407 samples = 38582.3 CDDA sectors
File Size : 20.6M
Bit Rate : 321k
Sample Encoding: MPEG audio (layer I, II or III)
Comments :
Title=Shoot the Messiah
Artist=Shoot the Messiah
Album=Kill All Gods
Tracknumber=3
Year=2019
Genre=Metal
Discnumber=1



Register


Go to the top of the page
  Insert nick Quick quote
+Quote Post
 
Start new topic
Replies (1 - 2)
post Jul 12 2019, 17:11:59
Post #2

Правь статус, ####!111
**************
Group: Металариец
Posts: 18,206
Releases: 12314
From: Г.Харьков
On Forums: 7 years 3 months
Thanks: 207835 time(s)
Unknown


Cloud Mail 320
Register


Go to the top of the page
  Insert nick Quick quote
+Quote Post
post Jul 12 2019, 21:28:38
Post #3

MDM-Thrash Metal
**************
Group: Металариец
Posts: 8,573
Releases: 570
From: Одесса
On Forums: 12 years 2 weeks
Thanks: 16673 time(s)
Ukraine


Go to the top of the page
  Insert nick Quick quote
+Quote Post

Reply to this topicStart new topic
1 User(s) are reading this topic (1 Guests and 0 Anonymous Users)
0 Members:

 



- Lo-Fi Version Support form
Copyrights and abuse reports form
Time is now: 26th August 2019 - 03:42:13