Welcome Guest ( Log In | Register )

> Releases Upload / Добавление релизов

Добавить релиз тут / Click here to add release
Рекомендованные обменники / Recommended file shares

 
Reply to this topicStart new topic
> Offensive - Metal To The Masses [ep] (2019), Heavy/Thrash Metal
post Jul 12 2019, 18:06:52
Post #1

Правь статус, ####!111
**************
Group: Металариец
Posts: 18,148
Releases: 12274
From: Г.Харьков
On Forums: 7 years 3 months
Thanks: 206885 time(s)
Unknown


(IMG:https://metalarea.org/images/audiocovers/2019_Jul/acov_tid324319_thumb.jpg)

*Artist: Offensive
*Album: Metal To The Masses [ep]
*Year: 2019
*Genre: Heavy/Thrash Metal
*Country: United States (IMG:https://metalarea.org/forum/style_images/flags/United%20States.png)
*Format: mp3@CBR320kbps
*Size: 61MB

Tracklist:
1. Life in the Attic 05:09
2. Nowhere to Run (Short Version) 03:49
3. Mankind ... Exited! 04:24
4. All Hell Breaks Loose 05:15
5. Azrael's Reaping (Short Version) 03:49
6. Awenasa (Demo) 06:50
******************************
Total playing time: 29:16




Extended info
Leon Sohail Guitars, Vocals (2015-present), Vocals (lead) (2018-present)
See also: Cyber Strike
Brett Bronstein Drums (2016-present)
Maxim Sobchenko Guitars (2019-present)
See also: ex-Thrillkiller
Ryan Mullen Guitars (2019-present)



Technical info
(IMG:https://metalarea.org/images/spectrogram/2019_Jul/c519dcc1e119ee8fdf1db928c9e3ce33.png)
Input File: 03. Mankind ... Exited!.mp3
Channels : 2
Sample Rate : 44100
Precision : 16-bit
Duration : 00:04:24.43 = 11661319 samples = 19832.2 CDDA sectors
File Size : 10.7M
Bit Rate : 323k
Sample Encoding: MPEG audio (layer I, II or III)
Comments :
Title=Mankind ... Exited!
Artist=Offensive
Album=Metal to the Masses - EP
Tracknumber=3/6
Year=2019
Genre=9
Discnumber=1/1



Register


Go to the top of the page
  Insert nick Quick quote
+Quote Post

Reply to this topicStart new topic
1 User(s) are reading this topic (1 Guests and 0 Anonymous Users)
0 Members:

 



- Lo-Fi Version Support form
Copyrights and abuse reports form
Time is now: 20th August 2019 - 23:36:01