Welcome Guest ( Log In | Register )

> Releases Upload / Добавление релизов

Добавить релиз тут / Click here to add release
Рекомендованные обменники / Recommended file shares

 
Reply to this topicStart new topic
> Faith Ov Gestalgt - Japanese Jinjya [ep] (2019), Raw Black Metal/Noise
post Jul 13 2019, 17:39:29
Post #1

Каждое ваше "Спасибо" помогает мне понять, что я делаю новости не напрасно.
***********
Group: Металариец
Posts: 1,894
Releases: 1656
From: Одесса
On Forums: 11 years 2 months
Thanks: 13999 time(s)
Ukraine


(IMG:http://metalarea.org/images/audiocovers/2019_Jul/acov_tid324386_thumb.jpg)

*Artist: Faith Ov Gestalgt
*Album: Japanese Jinjya [ep]
*Year: 2019
*Genre: Raw Black Metal/Noise
*Country: Japan (IMG:http://metalarea.org/forum/style_images/flags/Japan.png)
*Format: mp3@CBR320kbps
*Size: 46MB

Tracklist:
1. 神社
2. 大きな木
******************************
Total playing time: 19:25



Extended info
Line - up:

Uroboros - Everything (冥無幻妖、「忌み双児」, ex-Bloodsport Fairy Tale, 市姫, 幻妖雛)

(IMG:https://www.metal-archives.com/images/3/5/4/0/3540415337_photo.jpg?3527)


Technical info
(IMG:http://metalarea.org/images/spectrogram/2019_Jul/ac843e2009e455ee3f83dac70f1eed0a.png)
Input File: 01. 神社.mp3
Channels : 2
Sample Rate : 44100
Precision : 16-bit
Duration : 00:08:48.10 = 23289078 samples = 39607.3 CDDA sectors
File Size : 21.1M
Bit Rate : 320k
Sample Encoding: MPEG audio (layer I, II or III)
Comments :
Title=??
Artist=Faith ov Gestalgt
Album=Japanese JINJYA (EP)
Tracknumber=1
Year=2019
Genre=Raw Black Metal/Noise



Register


Go to the top of the page
  Insert nick Quick quote
+Quote Post

Reply to this topicStart new topic
1 User(s) are reading this topic (1 Guests and 0 Anonymous Users)
0 Members:

 



- Lo-Fi Version Support form
Copyrights and abuse reports form
Time is now: 21st August 2019 - 00:39:40