Welcome Guest ( Log In | Register )

> Lamp Of Murmuur - Melancholy Howls In Ceremonial Penitence (2019), Raw Black Metal
post Jul 14 2019, 12:08:50
Post #1

𝕻𝕬𝕹𝕬𝕮𝕰𝕬
******
Group: Металариец
Posts: 692
Releases: 388
On Forums: 7 years 3 months
Thanks: 5827 time(s)
Unknown


(IMG:http://metalarea.org/images/audiocovers/2019_Jul/acov_tid324405_thumb.jpg)

*Artist: Lamp Of Murmuur
*Album: Melancholy Howls In Ceremonial Penitence
*Year: 2019
*Genre: Raw Black Metal
*Country: United States (IMG:http://metalarea.org/forum/style_images/flags/United%20States.png)
*Format: mp3@CBR320kbps
*Size: 68MB

Tracklist:
1. Wail Of The Crescent Moon Light 01:41
2. Chalice Of Oniric Perversions 06:42
3. Vertikal Horrors 06:58
4. Unconceivable Spectral Vision 00:53
5. Harbinger Of Blasphemies To Come 05:14
6. Chalice Of Oniric Torment 05:36
7. Morbid Poetry In The Name Of The Levitating Priestess 02:13
******************************
Total playing time: 29:17



Extended info
Limited editions hand-numbered cassettes.
Death Kvlt Productions.


Technical info
(IMG:http://metalarea.org/images/spectrogram/2019_Jul/1ef316b1a3430f9f2f81db6dbdf8027a.png)
Input File: 02 - Chalice Of Oniric Perversions.mp3
Channels : 2
Sample Rate : 44100
Precision : 16-bit
Duration : 00:06:42.29 = 17740769 samples = 30171.4 CDDA sectors
File Size : 16.1M
Bit Rate : 320k
Sample Encoding: MPEG audio (layer I, II or III)
Comments :
Title=Chalice Of Oniric Perversions
Artist=Lamp Of Murmuur
Album=Melancholy Howls In Ceremonial Penitence
Tracknumber=2
Year=2019
Genre=Raw Black Metal



Register


Go to the top of the page
  Insert nick Quick quote
+Quote Post
 
Start new topic
Replies (1 - 5)
post Jul 15 2019, 10:32:38
Post #2
BAN
Banned till
Oct 7 2019, 23:44:15



@320

Register


Thanks:
(1) Panacea,
Go to the top of the page
  Insert nick Quick quote
+Quote Post
post Jul 15 2019, 13:52:25
Post #3
BAN
Banned till
Oct 7 2019, 23:44:15



ЦИТАТА(Panacea @ Jul 15 2019, 16:48:31) *
Is your link pointing to a wrong file?


Already fixed it, thanx for your attentiveness (IMG:style_emoticons/default/9.gif)


Thanks:
(1) Panacea,
Go to the top of the page
  Insert nick Quick quote
+Quote Post
post Jul 15 2019, 13:57:46
Post #4

𝕻𝕬𝕹𝕬𝕮𝕰𝕬
******
Group: Металариец
Posts: 692
Releases: 388
On Forums: 7 years 3 months
Thanks: 5827 time(s)
Unknown


Go to the top of the page
  Insert nick Quick quote
+Quote Post
post Jul 18 2019, 00:28:06
Post #5

Литр
*
Group: Подсевший
Posts: 67
Releases: 0
From: Россия
On Forums: 5 years 8 months
Thanks: 2 time(s)
Russian Federation


Годная вещь.
Go to the top of the page
  Insert nick Quick quote
+Quote Post
post Jul 22 2019, 09:24:42
Post #6

Два Литра
**
Group: Завсегдатай
Posts: 186
Releases: 0
On Forums: 3 months 2 weeks
Thanks: 79 time(s)
Unknown


Очередная годнота из сонма американских ультра сырых и примитивных проектов издающихся ультра мизерными тиражами на аналоговых носителях


Thanks:
Go to the top of the page
  Insert nick Quick quote
+Quote Post

Reply to this topicStart new topic
1 User(s) are reading this topic (1 Guests and 0 Anonymous Users)
0 Members:

 



- Lo-Fi Version Support form
Copyrights and abuse reports form
Time is now: 19th September 2019 - 09:45:18