Welcome Guest ( Log In | Register )

> И неформату есть предел.

Рэп/хип-хоп/шансон/поп удаляются. Для них есть свои порталы.

> Procol Harum - Exotic Birds And Fruit (1974), Progressive/Art Rock
post Jul 14 2019, 18:57:31
Post #1

Правь статус, ####!111
**************
Group: Металариец
Posts: 42,357
Releases: 641
On Forums: 10 years 2 months
Thanks: 33195 time(s)
Russian Federation


(IMG:https://metalarea.org/images/audiocovers/2019_Jul/acov_tid324427_thumb.jpg)

*Artist: Procol Harum
*Album: Exotic Birds And Fruit
*Year: 1974
*Genre: Progressive/Art Rock
*Country: United Kingdom (IMG:https://metalarea.org/forum/style_images/flags/United%20Kingdom.png)
*Format: mp3@CBR320kbps
*Size: 84MB

Tracklist:
1. Nothing But The Truth
2. Beyond The Pale
3. As Strong As Samson
4. The Idol
5. The Thin End Of The Wedge
6. Monsieur R. Monde
7. Fresh Fruit
8. Butterfly Boys
9. New Lamps For Old
******************************
Total playing time: 37:01

(IMG:https://metalarea.org/images/youtube.png)

Technical info
(IMG:https://metalarea.org/images/spectrogram/2019_Jul/c7e3f9802a3bc67e634d314b367ac3b8.png)
Input File: A1. Nothing But The Truth.mp3
Channels : 2
Sample Rate : 44100
Precision : 16-bit
Duration : 00:03:13.99 = 8555003 samples = 14549.3 CDDA sectors
File Size : 7.82M
Bit Rate : 323k
Sample Encoding: MPEG audio (layer I, II or III)
Comments :
Title=Nothing But The Truth
Artist=Procol Harum
Album=Exotic Birds And Fruit
Tracknumber=01
Year=1974
Genre=Progressive Rock



Register


Thanks:
(1) marilin,
Go to the top of the page
  Insert nick Quick quote
+Quote Post
 
Start new topic
Replies (1 - 1)
post Jul 25 2019, 15:56:08
Post #2

Правь статус, ####!111
**************
Group: Металариец
Posts: 42,357
Releases: 641
On Forums: 10 years 2 months
Thanks: 33195 time(s)
Russian Federation


Один из любимых их альбомов.

paganheart, что скажешь?
Go to the top of the page
  Insert nick Quick quote
+Quote Post

Reply to this topicStart new topic
1 User(s) are reading this topic (1 Guests and 0 Anonymous Users)
0 Members:

 



- Lo-Fi Version Support form
Copyrights and abuse reports form
Time is now: 21st August 2019 - 00:40:48