Welcome Guest ( Log In | Register )

> Releases Upload / Добавление релизов

Добавить релиз тут / Click here to add release
Рекомендованные обменники / Recommended file shares

> Голодомор - Голодомор (2018), Sludge Metal/Crust
post Jul 14 2019, 19:49:22
Post #1

Правь статус, ####!111
**************
Group: Металариец
Posts: 42,464
Releases: 644
On Forums: 10 years 2 months
Thanks: 33374 time(s)
Russian Federation


(IMG:https://metalarea.org/images/audiocovers/2019_Jul/acov_tid324430_thumb.jpg)

*Artist: Голодомор
*Album: Голодомор
*Year: 2018
*Genre: Sludge Metal/Crust
*Country: Russian Federation (IMG:https://metalarea.org/forum/style_images/flags/Russian%20Federation.png)
*Format: mp3@CBR320kbps
*Size: 104MB

Tracklist:
1. Итог 04:14
2. I.C.B.M. 05:04
3. Агония 04:48
4. Doomsday 05:30
5. Shoot, Knife, Strangle, Beat & Crucify 03:09
6. Russian Redneck Party 03:04
7. Грабь, убивай 09:56
8. White Rabbit 09:00
******************************
Total playing time: 44:45



Technical info
(IMG:https://metalarea.org/images/spectrogram/2019_Jul/94645373a686cdea00be3ccfcd0accd9.png)
Input File: Голодомор - Голодомор - 01 Итог.mp3
Channels : 2
Sample Rate : 44100
Precision : 16-bit
Duration : 00:04:14.60 = 11227992 samples = 19095.2 CDDA sectors
File Size : 10.4M
Bit Rate : 326k
Sample Encoding: MPEG audio (layer I, II or III)
Comments :
Title=Итог
Artist=Голодомор
Album=Голодомор
Tracknumber=1
Year=2016



Register


Go to the top of the page
  Insert nick Quick quote
+Quote Post
 
Start new topic
Replies (1 - 2)
post Jul 15 2019, 20:17:20
Post #2

Три Литра
***
Group: Завсегдатай
Posts: 237
Releases: 0
From: Москва
On Forums: 10 years 11 months
Thanks: 34 time(s)
Russian Federation


страшно стало за отечественную сцену


Thanks:
(1) DarkHorde,
Go to the top of the page
  Insert nick Quick quote
+Quote Post
post Jul 16 2019, 19:23:06
Post #3

Литр
*
Group: Подсевший
Posts: 85
Releases: 0
From: минск сити
On Forums: 10 years 1 month
Thanks: 4 time(s)
Belarus


когда то я слышал ВИА "Карданов Вал"... и то было лучше
Go to the top of the page
  Insert nick Quick quote
+Quote Post

Reply to this topicStart new topic
1 User(s) are reading this topic (1 Guests and 0 Anonymous Users)
0 Members:

 



- Lo-Fi Version Support form
Copyrights and abuse reports form
Time is now: 26th August 2019 - 06:28:48