Welcome Guest ( Log In | Register )

> Releases Upload / Добавление релизов

Добавить релиз тут / Click here to add release
Рекомендованные обменники / Recommended file shares

> Witch King - Conjuration Of Bestial Forces [ep] (2013), Black/Death Metal
post Jul 16 2019, 10:36:17
Post #1

the faceless one
Group Icon
Group: S-moderation team
Posts: 9,210
Releases: 1880
On Forums: 11 years 2 weeks
Thanks: 110457 time(s)
Russian Federation


(IMG:http://metalarea.org/images/audiocovers/2019_Jul/acov_tid324502_thumb.jpg)

*Artist: Witch King
*Album: Conjuration Of Bestial Forces [ep]
*Year: 2013
*Genre: Black/Death Metal
*Country: United States (IMG:http://metalarea.org/forum/style_images/flags/United%20States.png)
*Format: mp3@CBR320kbps
*Size: 61MB

Tracklist:
1. Confined In The Infernal Realm 04:56
2. Tomb Of The Serpent 03:47
3. Jehovah Grinder 01:50
4. Conjuration Of Bestial Forces 03:27
5. Satanic Sluts Of Sodomy 02:06
6. Imperial War March 02:19
7. Atomik Goat Kommand 04:47
8. Crucify The Heritic 03:21
******************************
Total playing time: 26:33




Extended info
Old Cemetery Records


Technical info
(IMG:http://metalarea.org/images/spectrogram/2019_Jul/579ca9cd7403c6c8f433016caecf8ebe.png)
Input File: Witch King - 03 - Tomb Of The Serpent.mp3
Channels : 2
Sample Rate : 44100
Precision : 16-bit
Duration : 00:01:50.24 = 4861672 samples = 8268.15 CDDA sectors
File Size : 4.41M
Bit Rate : 320k
Sample Encoding: MPEG audio (layer I, II or III)
Comments :
Title=Tomb Of The Serpent
Artist=Witch King
Album=Conjuration Of Bestial Forces
Tracknumber=03
Year=2014
Genre=Black Metal



Register


Go to the top of the page
  Insert nick Quick quote
+Quote Post
 
Start new topic
Replies (1 - 2)
post Jul 16 2019, 22:08:05
Post #2

Литр
*
Group: Подсевший
Posts: 54
Releases: 0
From: Austin Texas
On Forums: 11 months 1 week
Thanks: 29 time(s)
United States


Thank you!
Go to the top of the page
  Insert nick Quick quote
+Quote Post
post Jul 18 2019, 00:52:19
Post #3

Absorbence
***********
Group: Металариец
Posts: 1,680
Releases: 215
From: Vastland Abyss of Cthulhu
On Forums: 12 years 9 months
Thanks: 3709 time(s)
Canada


Witch King is awesome, good to listen to it.
Go to the top of the page
  Insert nick Quick quote
+Quote Post

Reply to this topicStart new topic
2 User(s) are reading this topic (2 Guests and 0 Anonymous Users)
0 Members:

 



- Lo-Fi Version Support form
Copyrights and abuse reports form
Time is now: 24th August 2019 - 14:36:44