Welcome Guest ( Log In | Register )

> Releases Upload / Добавление релизов

Добавить релиз тут / Click here to add release
Рекомендованные обменники / Recommended file shares

> Opera At The Massacre - Mindfuck (2019), Melodic Death Metal/Metalcore
post Jul 16 2019, 13:10:07
Post #1

Serial Uploader
Group Icon
Group: V.I.P
Posts: 35,872
Releases: 34079
From: Lithuania
On Forums: 11 years 2 months
Thanks: 394033 time(s)
Lithuania


(IMG:http://metalarea.org/images/audiocovers/2019_Jul/acov_tid324506_thumb.jpg)

*Artist: Opera At The Massacre
*Album: Mindfuck
*Year: 2019
*Genre: Melodic Death Metal/Metalcore
*Country: Mexico (IMG:http://metalarea.org/forum/style_images/flags/Mexico.png)
*Format: mp3@CBR320kbps
*Size: 92MB

Tracklist:
01. Intro
02. Esclavos En Agonia
03. Nino Soldado
04. Fuck You All
05. Cobarde
06. Castigo
07. Asesino
08. Silencer
09. Tierra En Caos
10. 1521
11. Mindfuck
******************************
Total playing time: 40:03



Technical info
(IMG:http://metalarea.org/images/spectrogram/2019_Jul/cc5ec1efa585102021b7320c9fd7a27c.png)
Input File: 02. Esclavos En Agonia.mp3
Channels : 2
Sample Rate : 44100
Precision : 16-bit
Duration : 00:03:14.36 = 8571452 samples = 14577.3 CDDA sectors
File Size : 8.69M
Bit Rate : 358k
Sample Encoding: MPEG audio (layer I, II or III)
Comments :
Title=Esclavos En Agonia
Artist=Opera At The Massacre
Album=MINDFUCK
Tracknumber=2/11
Year=2019



Register


Go to the top of the page
  Insert nick Quick quote
+Quote Post
 
Start new topic
Replies (1 - 2)
post Jul 17 2019, 09:44:45
Post #2

hearer & reader
**************
Group: Металариец
Posts: 7,965
Releases: 103
From: Moscow
On Forums: 11 years 11 months
Thanks: 7467 time(s)
Russian Federation



(IMG:style_emoticons/default/nyyy.gif)
Go to the top of the page
  Insert nick Quick quote
+Quote Post
post Jul 27 2019, 15:46:47
Post #3

Литр
*
Group: Подсевший
Posts: 87
Releases: 2
On Forums: 9 years 1 month
Thanks: 63 time(s)
Russian Federation


FLAC: https://yadi.sk/d/ofgxYnTKbNQ3zQ
Go to the top of the page
  Insert nick Quick quote
+Quote Post

Reply to this topicStart new topic
1 User(s) are reading this topic (1 Guests and 0 Anonymous Users)
0 Members:

 



- Lo-Fi Version Support form
Copyrights and abuse reports form
Time is now: 26th August 2019 - 03:36:19