Welcome Guest ( Log In | Register )

> Releases Upload / Добавление релизов

Добавить релиз тут / Click here to add release
Рекомендованные обменники / Recommended file shares

> Cristo Decapitado - Cristo Decapitado (2019), Death Metal
post Jul 16 2019, 13:22:04
Post #1

Serial Uploader
Group Icon
Group: V.I.P
Posts: 35,872
Releases: 34079
From: Lithuania
On Forums: 11 years 2 months
Thanks: 394033 time(s)
Lithuania


(IMG:http://metalarea.org/images/audiocovers/2019_Jul/acov_tid324507_thumb.jpg)

*Artist: Cristo Decapitado
*Album: Cristo Decapitado
*Year: 2019
*Genre: Death Metal
*Country: Mexico (IMG:http://metalarea.org/forum/style_images/flags/Mexico.png)
*Format: mp3@CBR320kbps
*Size: 65MB

Tracklist:
01. Constelación de la cruz invertida 02:15
02. Christus Sperma Putridum 02:42
03. Mierda de los dioses 03:30
04. Ojos diabólicos de la virgen 03:30
05. Satán te guíe por las estrellas 02:21
06. El sol eructa blasfemias 02:12
07. Satánica legión extraterrestre 04:04
08. Algoritmos luciferianos 02:22
09. Cristo reptiliano 04:30
******************************
Total playing time: 27:26




Technical info
(IMG:http://metalarea.org/images/spectrogram/2019_Jul/edde50c3a7e966905fee8707feabf379.png)
Input File: 03. Mierda de los Dioses.mp3
Channels : 2
Sample Rate : 44100
Precision : 16-bit
Duration : 00:03:30.12 = 9266160 samples = 15758.8 CDDA sectors
File Size : 8.64M
Bit Rate : 329k
Sample Encoding: MPEG audio (layer I, II or III)
Comments :
Title=Mierda de los Dioses
Artist=Cristo Decapitado
Album=Cristo Decapitado
Tracknumber=3/9
Year=2019



Register


Go to the top of the page
  Insert nick Quick quote
+Quote Post
 
Start new topic
Replies (1 - 2)
post Jul 16 2019, 21:00:53
Post #2

MDM-Thrash Metal
**************
Group: Металариец
Posts: 8,573
Releases: 570
From: Одесса
On Forums: 12 years 2 weeks
Thanks: 16673 time(s)
Ukraine


Тот случай, когда даже 2 трека по превью сложно осилить...


Thanks:
(1) ingram,
Go to the top of the page
  Insert nick Quick quote
+Quote Post
post Jul 16 2019, 21:06:05
Post #3

Правь статус, ####!111
**************
Group: Металариец
Posts: 42,464
Releases: 644
On Forums: 10 years 2 months
Thanks: 33370 time(s)
Russian Federation


Да здесь уже по Унуракум-ообразной обложке все понятно. (IMG:style_emoticons/default/15.gif)
Go to the top of the page
  Insert nick Quick quote
+Quote Post

Reply to this topicStart new topic
1 User(s) are reading this topic (1 Guests and 0 Anonymous Users)
0 Members:

 



- Lo-Fi Version Support form
Copyrights and abuse reports form
Time is now: 26th August 2019 - 04:09:55