Welcome Guest ( Log In | Register )

> И неформату есть предел.

Рэп/хип-хоп/шансон/поп удаляются. Для них есть свои порталы.

> Frozen Planet....1969 - Meltdown On The Horizon (2019), Psychedelic/Space/Acid Rock/Heavy Psych
post Jul 17 2019, 09:45:14
Post #1

Правь статус, ####!111
**************
Group: Металариец
Posts: 42,390
Releases: 641
On Forums: 10 years 2 months
Thanks: 33246 time(s)
Russian Federation


(IMG:http://metalarea.org/images/audiocovers/2019_Jul/acov_tid324534_thumb.jpg)

*Artist: Frozen Planet....1969
*Album: Meltdown On The Horizon
*Year: 2019
*Genre: Psychedelic/Space/Acid Rock/Heavy Psych
*Country: Australia (IMG:http://metalarea.org/forum/style_images/flags/Australia.png)
*Format: mp3@CBR320kbps
*Size: 117MB

Tracklist:
1. Rollback 22:25
2. Bellhop Shindig 08:11
3. Dandy Chai 06:40
4. Sunset Variations 17:01
******************************
Total playing time: 54:17



Technical info
(IMG:http://metalarea.org/images/spectrogram/2019_Jul/8ef31d0769cbd9c19857c946e6c13e5a.png)
Input File: 01 Rollback.mp3
Channels : 2
Sample Rate : 44100
Precision : 16-bit
Duration : 00:22:25.03 = 59315603 samples = 100877 CDDA sectors
File Size : 54.4M
Bit Rate : 324k
Sample Encoding: MPEG audio (layer I, II or III)
Comments :
Title=Rollback
Artist=Frozen Planet....1969
Album=Meltdown On The Horizon
Tracknumber=1
Year=2019
Genre=Psychedelic Space Rock



Register


Go to the top of the page
  Insert nick Quick quote
+Quote Post
 
Start new topic
Replies (1 - 2)
post Jul 17 2019, 10:33:12
Post #2

Правь статус, ####!111
**************
Group: Металариец
Posts: 42,390
Releases: 641
On Forums: 10 years 2 months
Thanks: 33246 time(s)
Russian Federation


Поистине волшебный трип...
Go to the top of the page
  Insert nick Quick quote
+Quote Post
post Jul 26 2019, 16:36:09
Post #3

Три Литра
***
Group: Завсегдатай
Posts: 233
Releases: 0
From: Moscow
On Forums: 11 years 7 months
Thanks: 17 time(s)
Russian Federation


Ооо, снова эти ребята
Go to the top of the page
  Insert nick Quick quote
+Quote Post

Reply to this topicStart new topic
1 User(s) are reading this topic (1 Guests and 0 Anonymous Users)
0 Members:

 



- Lo-Fi Version Support form
Copyrights and abuse reports form
Time is now: 22nd August 2019 - 13:16:42