Welcome Guest ( Log In | Register )

 
Reply to this topicStart new topic
> Necromonarchia Daemonum - Xul In The Name Of Mayhem [demo] (2014), Black/Doom Metal
post Jul 17 2019, 21:33:09
Post #1

the faceless one
Group Icon
Group: S-moderation team
Posts: 9,354
Releases: 1928
On Forums: 12 years 1 month
Thanks: 115883 time(s)
Russian Federation


(IMG:http://metalarea.org/images/audiocovers/2019_Jul/acov_tid324568_thumb.jpg)

*Artist: Necromonarchia Daemonum
*Album: Xul In The Name Of Mayhem [demo]
*Year: 2014
*Genre: Black/Doom Metal
*Country: Finland (IMG:http://metalarea.org/forum/style_images/flags/Finland.png)
*Format: mp3@CBR320kbps
*Size: 39MB

Tracklist:
1. Dark Orgies (Intro) 02:17
2. Abattoir Of Dreams 05:25
3. Ancestral Demonolatry 05:16
4. Necromonarchia Daemonum 03:49
******************************
Total playing time: 16:47

(IMG:http://metalarea.org/images/youtube.png)

Technical info
(IMG:http://metalarea.org/images/spectrogram/2019_Jul/c804c68f20436c83c08fc530005a492b.png)
Input File: Necromonarchia Daemonum - 03 - Ancestral Demonolatry.mp3
Channels : 2
Sample Rate : 44100
Precision : 16-bit
Duration : 00:05:16.41 = 13953769 samples = 23730.9 CDDA sectors
File Size : 12.7M
Bit Rate : 320k
Sample Encoding: MPEG audio (layer I, II or III)
Comments :
Title=Ancestral Demonolatry
Artist=Necromonarchia Daemonum
Album=Xul In The Name Of Mayhem
Tracknumber=03/04
Year=2014
Genre=Black Metal



Register


Go to the top of the page
  Insert nick Quick quote
+Quote Post

Reply to this topicStart new topic
1 User(s) are reading this topic (1 Guests and 0 Anonymous Users)
0 Members:

 



- Lo-Fi Version Support form
Copyrights and abuse reports form
Time is now: 22nd September 2020 - 21:53:10