Welcome Guest ( Log In | Register )

> Necromonarchia Daemonum - Alter Mortem [demo] (2015), Black/Doom Metal
post Jul 17 2019, 21:33:21
Post #1

the faceless one
Group Icon
Group: S-moderation team
Posts: 9,228
Releases: 1885
On Forums: 11 years 1 month
Thanks: 110959 time(s)
Russian Federation


(IMG:http://metalarea.org/images/audiocovers/2019_Jul/acov_tid324569_thumb.jpg)

*Artist: Necromonarchia Daemonum
*Album: Alter Mortem [demo]
*Year: 2015
*Genre: Black/Doom Metal
*Country: Finland (IMG:http://metalarea.org/forum/style_images/flags/Finland.png)
*Format: mp3@CBR320kbps
*Size: 28MB

Tracklist:
1. Apparition Beyond The Perceptible (Intro) 01:35
2. Dungeons Of The Dead Screeches 03:05
3. Citadel Of The Satans Spawn 02:48
4. Dead Moon Obeisance... (Outro) 04:35
******************************
Total playing time: 12:03

(IMG:http://metalarea.org/images/youtube.png)

Technical info
(IMG:http://metalarea.org/images/spectrogram/2019_Jul/c307af67a9136a23281738fd5b58be37.png)
Input File: Necromonarchia Daemonum - 02 - Dungeons Of The Dead Screeches.mp3
Channels : 2
Sample Rate : 44100
Precision : 16-bit
Duration : 00:03:04.72 = 8146240 samples = 13854.1 CDDA sectors
File Size : 7.39M
Bit Rate : 320k
Sample Encoding: MPEG audio (layer I, II or III)
Comments :
Title=Dungeons Of The Dead Screeches
Artist=Necromonarchia Daemonum
Album=Alter Mortem
Tracknumber=02/04
Year=2015
Genre=Black Metal



Register


Go to the top of the page
  Insert nick Quick quote
+Quote Post
 
Start new topic
Replies (1 - 1)
post Jul 20 2019, 17:37:35
Post #2

Восемь Литров
********
Group: Металариец
Posts: 847
Releases: 163
On Forums: 8 years 11 months
Thanks: 2053 time(s)
Albania


really great stuff my friend
Go to the top of the page
  Insert nick Quick quote
+Quote Post

Reply to this topicStart new topic
1 User(s) are reading this topic (1 Guests and 0 Anonymous Users)
0 Members:

 



- Lo-Fi Version Support form
Copyrights and abuse reports form
Time is now: 15th September 2019 - 20:57:08