Welcome Guest ( Log In | Register )

 
Reply to this topicStart new topic
> Necromonarchia Daemonum - Stygian Serenade [demo] (2017), Black/Doom Metal
post Jul 17 2019, 21:33:42
Post #1

the faceless one
Group Icon
Group: S-moderation team
Posts: 9,354
Releases: 1928
On Forums: 12 years 1 month
Thanks: 115882 time(s)
Russian Federation


(IMG:http://metalarea.org/images/audiocovers/2019_Jul/acov_tid324570_thumb.jpg)

*Artist: Necromonarchia Daemonum
*Album: Stygian Serenade [demo]
*Year: 2017
*Genre: Black/Doom Metal
*Country: Finland (IMG:http://metalarea.org/forum/style_images/flags/Finland.png)
*Format: mp3@CBR320kbps
*Size: 31MB

Tracklist:
1. Anno Dracul 02:02
2. Mystigmata 03:02
3. Crucifixions Under A Mass Of Darkness 03:24
4. Her Sombre Funeral Lament 05:12
******************************
Total playing time: 13:40

(IMG:http://metalarea.org/images/youtube.png)

Technical info
(IMG:http://metalarea.org/images/spectrogram/2019_Jul/ff2c30736b4c52324e32bcb534cd1587.png)
Input File: Necromonarchia Daemonum - 02 - Mystigmata.mp3
Channels : 2
Sample Rate : 44100
Precision : 16-bit
Duration : 00:03:02.32 = 8040224 samples = 13673.9 CDDA sectors
File Size : 7.29M
Bit Rate : 320k
Sample Encoding: MPEG audio (layer I, II or III)
Comments :
Title=Mystigmata
Artist=Necromonarchia Daemonum
Album=Stygian Serenade
Tracknumber=02/04
Year=2017
Genre=Black Metal



Register


Go to the top of the page
  Insert nick Quick quote
+Quote Post

Reply to this topicStart new topic
1 User(s) are reading this topic (1 Guests and 0 Anonymous Users)
0 Members:

 



- Lo-Fi Version Support form
Copyrights and abuse reports form
Time is now: 22nd September 2020 - 21:34:10