Welcome Guest ( Log In | Register )

 
Reply to this topicStart new topic
> Necromonarchia Daemonum - Funeralis De Malefica [demo] (2018), Black/Doom Metal
post Jul 17 2019, 21:33:55
Post #1

the faceless one
Group Icon
Group: S-moderation team
Posts: 9,229
Releases: 1885
On Forums: 11 years 1 month
Thanks: 111041 time(s)
Russian Federation


(IMG:http://metalarea.org/images/audiocovers/2019_Jul/acov_tid324571_thumb.jpg)

*Artist: Necromonarchia Daemonum
*Album: Funeralis De Malefica [demo]
*Year: 2018
*Genre: Black/Doom Metal
*Country: Finland (IMG:http://metalarea.org/forum/style_images/flags/Finland.png)
*Format: mp3@CBR320kbps
*Size: 36MB

Tracklist:
1. Livid Presence Of A Voice Of Hell 02:10
2. Necroerotica The Witches Shrine 03:27
3. Media Nox Funeralis 00:59
4. Bloodlust & Witchcraft 03:40
5. Moonglow Gothician 05:30
******************************
Total playing time: 15:46

(IMG:http://metalarea.org/images/youtube.png)

Technical info
(IMG:http://metalarea.org/images/spectrogram/2019_Jul/b2da15dafd890d85b82f059e6702cc89.png)
Input File: Necromonarchia Daemonum - 04 - Bloodlust & Witchcraft.mp3
Channels : 2
Sample Rate : 44100
Precision : 16-bit
Duration : 00:03:40.43 = 9721095 samples = 16532.5 CDDA sectors
File Size : 8.82M
Bit Rate : 320k
Sample Encoding: MPEG audio (layer I, II or III)
Comments :
Title=Bloodlust & Witchcraft
Artist=Necromonarchia Daemonum
Album=Funeralis De Malefica
Tracknumber=04/05
Year=2018
Genre=Black Metal



Register


Go to the top of the page
  Insert nick Quick quote
+Quote Post

Reply to this topicStart new topic
1 User(s) are reading this topic (1 Guests and 0 Anonymous Users)
0 Members:

 



- Lo-Fi Version Support form
Copyrights and abuse reports form
Time is now: 22nd September 2019 - 01:11:37