Welcome Guest ( Log In | Register )

> Tiger Nest - The Great Southern Death March (2018), Stoner/Doom Metal
post Jul 18 2019, 15:50:09
Post #1

Cultist
**************
Group: Металариец
Posts: 4,288
Releases: 1331
From: Koenigsberg
On Forums: 13 years 6 months
Thanks: 8821 time(s)
Russian Federation


(IMG:http://metalarea.org/images/audiocovers/2019_Jul/acov_tid324613_thumb.jpg)

*Artist: Tiger Nest
*Album: The Great Southern Death March
*Year: 2018
*Genre: Stoner/Doom Metal
*Country: United States (IMG:http://metalarea.org/forum/style_images/flags/United%20States.png)
*Format: mp3@CBR320kbps
*Size: 237MB

Tracklist:
1. Tiger Nest 08:35
2. Prison Planet 03:35
3. Nachthexen 09:28
4. Catatonic 06:43
5. Comely 07:03
6. Staring at the Sun (Forever Green) 04:57
7. Constriction 06:18
8. Dilation 05:20
9. Horses in the Sky 06:46
10. Prison Planet (I. Reprisal, II. The Wolf Is Loose, III. Return to Madness) 09:51
11. Tunnel Rats 08:59
12. The Holy Shapes 04:43
13. Abstract Art 06:59
14. Failed / Flight of the Locust 13:59
******************************
Total playing time: 1:43:16



Technical info
(IMG:http://metalarea.org/images/spectrogram/2019_Jul/f33b711035ca855fc7afc86175e8eebd.png)
Input File: 05 - Comely.mp3
Channels : 2
Sample Rate : 44100
Precision : 16-bit
Duration : 00:07:03.55 = 18678511 samples = 31766.2 CDDA sectors
File Size : 17.0M
Bit Rate : 321k
Sample Encoding: MPEG audio (layer I, II or III)
Comments :
Title=Comely
Artist=Tiger Nest
Album=The Great Southern Death March
Tracknumber=5
Year=2018
Genre=Stoner/Doom Metal



Register


Go to the top of the page
  Insert nick Quick quote
+Quote Post
 
Start new topic
Replies (1 - 1)
post Jul 19 2019, 07:14:41
Post #2

South Of Heaven /адепт ВУДУ
**************
Group: Металариец
Posts: 13,960
Releases: 9
On Forums: 10 years 3 months
Thanks: 5479 time(s)
Unknown


Ещё один многостаночник, только в 2018 году 5 альбомов (IMG:style_emoticons/default/fear.gif)
Go to the top of the page
  Insert nick Quick quote
+Quote Post

Reply to this topicStart new topic
1 User(s) are reading this topic (1 Guests and 0 Anonymous Users)
0 Members:

 



- Lo-Fi Version Support form
Copyrights and abuse reports form
Time is now: 7th July 2020 - 06:26:59