Welcome Guest ( Log In | Register )

> Forum rules / Правила раздела

Here go releases which can't go to New releases forums due lack of information, stolen links or incorrect data and just founded in other sites links with minimum info. Reissue of this releases through Add release form with added/corrected data, info and own links highly welcomed.

Сюда уходят релизы, не пропущенные в основные релизные форумы по причинам отсутствия, недостаточности или неверности/некорректности сопровождающей информации, содержащие ссылки, указывающие на файлы, залитые не автором темы, а так же просто найденные где-то ссылки с минимумом информации. Переоформление тем отсюда через форму Добавления релиза с перезаливкой ссылок крайне приветствуется.

 
Reply to this topicStart new topic
> 10.000 Km² Gegen Die Zeit - Absolutely Z (2019), Stoner/Doom Metal/Rock
post Jul 18 2019, 19:23:21
Post #1

Group: Дух
Posts: 10
Releases: 5
On Forums: 6 years 2 months
Thanks: 54 time(s)
Colombia


(IMG:https://metalarea.org/images/audiocovers/2019_Jul/acov_tid324620_thumb.jpg)

*Artist: 10.000 Km² Gegen Die Zeit
*Album: Absolutely Z
*Year: 2019
*Genre: Stoner/Doom Metal/Rock
*Country: Germany (IMG:https://metalarea.org/forum/style_images/flags/Germany.png)
*Format: mp3@CBR128kbps (IMG:https://metalarea.org/images/bit_low.gif)
*Size: 34MB

Tracklist:
1. All the Time 03:34
2. Ozeanische Entgrenzung 05:05
3. Neptun Storm 03:44
4. Speed Pilot 06:27
5. The 26th Century Plasma Man 19:01
******************************
Total playing time: 37:51



Technical info
(IMG:https://metalarea.org/images/spectrogram/2019_Jul/478f70bf3829cb069fc36be3d2b227b0.png)
Input File: 05 - The 26th Century Plasma Man.mp3
Channels : 2
Sample Rate : 44100
Precision : 16-bit
Duration : 00:19:01.63 = 50345927 samples = 85622.3 CDDA sectors
File Size : 18.3M
Bit Rate : 128k
Sample Encoding: MPEG audio (layer I, II or III)
Comments :
Title=The 26th Plasma Man
Artist=10.000 Km² Gegen Die Zeit
Album=Absolutely Z
Tracknumber=5



Register


Thanks:
Go to the top of the page
  Insert nick Quick quote
+Quote Post

Reply to this topicStart new topic
2 User(s) are reading this topic (2 Guests and 0 Anonymous Users)
0 Members:

 



- Lo-Fi Version Support form
Copyrights and abuse reports form
Time is now: 15th September 2019 - 20:57:05