Welcome Guest ( Log In | Register )

 
Reply to this topicStart new topic
> Despising Humanity - Plaga Abominable [ep] (2019), Brutal Death Metal
post Jul 18 2019, 22:31:37
Post #1

Правь статус, ####!111
**************
Group: Металариец
Posts: 18,539
Releases: 12539
From: Г.Харьков
On Forums: 7 years 4 months
Thanks: 212553 time(s)
Unknown


(IMG:https://metalarea.org/images/audiocovers/2019_Jul/acov_tid324627_thumb.jpg)

*Artist: Despising Humanity
*Album: Plaga Abominable [ep]
*Year: 2019
*Genre: Brutal Death Metal
*Country: Chile (IMG:https://metalarea.org/forum/style_images/flags/Chile.png)
*Format: mp3@CBR320kbps
*Size: 33MB

Tracklist:
1. Delirio de negación 03:48
2. Intervalo de destrucción 03:20
3. Plaga abominable 03:39
4. Solo la muerte es cierta 02:59
******************************
Total playing time: 13:46




Extended info
Richard Rojas Flores Bass
Morbi Avalos Castillo Guitars


Technical info
(IMG:https://metalarea.org/images/spectrogram/2019_Jul/80c943b60b48045c32e7aea84086e6d6.png)
Input File: 02. Intervalo de Destrucciвn.mp3
Channels : 2
Sample Rate : 44100
Precision : 16-bit
Duration : 00:03:21.00 = 8864100 samples = 15075 CDDA sectors
File Size : 8.38M
Bit Rate : 334k
Sample Encoding: MPEG audio (layer I, II or III)
Comments :
Title=Intervalo de Destrucción
Artist=Despising Humanity
Album=Plaga Abominable
Tracknumber=02
Year=2019
Genre=Metal



Register


Go to the top of the page
  Insert nick Quick quote
+Quote Post

Reply to this topicStart new topic
1 User(s) are reading this topic (1 Guests and 0 Anonymous Users)
0 Members:

 



- Lo-Fi Version Support form
Copyrights and abuse reports form
Time is now: 19th September 2019 - 15:58:07