Welcome Guest ( Log In | Register )

> Releases Upload / Добавление релизов

Добавить релиз тут / Click here to add release
Рекомендованные обменники / Recommended file shares

 
Reply to this topicStart new topic
> Gealach - Gealach [demo] (2019), Black Metal
post Jul 20 2019, 15:40:09
Post #1

𝕻𝕬𝕹𝕬𝕮𝕰𝕬
******
Group: Металариец
Posts: 692
Releases: 388
On Forums: 7 years 3 months
Thanks: 5803 time(s)
Unknown


(IMG:http://metalarea.org/images/audiocovers/2019_Jul/acov_tid324692_thumb.jpg)

*Artist: Gealach
*Album: Gealach [demo]
*Year: 2019
*Genre: Black Metal
*Country: Ireland (IMG:http://metalarea.org/forum/style_images/flags/Ireland.png)
*Format: mp3@CBR320kbps
*Size: 45MB

Tracklist:
1. Der Eiskonig 07:55
2. Nailed To The Cross Of Plagues 05:11
3. The Mire 06:03
******************************
Total playing time: 19:09



Extended info
Limited tape release by Celtic Wraith Records.


Technical info
(IMG:http://metalarea.org/images/spectrogram/2019_Jul/b5dd832815911ce56a95bd3009884eae.png)
Input File: 02 - Nailed To The Cross Of Plagues.mp3
Channels : 2
Sample Rate : 44100
Precision : 16-bit
Duration : 00:05:11.11 = 13720039 samples = 23333.4 CDDA sectors
File Size : 12.5M
Bit Rate : 321k
Sample Encoding: MPEG audio (layer I, II or III)
Comments :
Title=Nailed To The Cross Of Plagues
Artist=Gealach
Album=Gealach
Tracknumber=2
Year=2019
Genre=Black Metal



Register


Go to the top of the page
  Insert nick Quick quote
+Quote Post

Reply to this topicStart new topic
2 User(s) are reading this topic (2 Guests and 0 Anonymous Users)
0 Members:

 



- Lo-Fi Version Support form
Copyrights and abuse reports form
Time is now: 15th September 2019 - 23:02:09