Welcome Guest ( Log In | Register )

> Qassam - Shaythan Akhbar! (حرب أكبر) (2013), Black Metal
post Jul 21 2019, 18:15:52
Post #1

Cultist
**************
Group: Металариец
Posts: 4,283
Releases: 1330
From: Koenigsberg
On Forums: 13 years 3 months
Thanks: 8732 time(s)
Russian Federation


(IMG:http://metalarea.org/images/audiocovers/2019_Jul/acov_tid324729_thumb.jpg)

*Artist: Qassam
*Album: Shaythan Akhbar! (حرب أكبر)
*Year: 2013
*Genre: Black Metal
*Country: Hungary (IMG:http://metalarea.org/forum/style_images/flags/Hungary.png)
*Format: mp3@CBR320kbps
*Size: 60MB

Tracklist:
1. Intro/Six Millions More... 03:49
2. Qassam 02:13
3. War Criminals 02:19
4. T.W.H.A.F.W.I.H. 00:56
5. Angel's Tearing Blood 02:14
6. Death To Everything 02:19
7. Satan's Servants 02:37
8. Sieg Heil Satan! 00:22
9. Atomic Sun Is Rising 02:37
10. Campo de Extermínio (Holocausto cover) 03:37
******************************
Total playing time: 23:03

Technical info
(IMG:http://metalarea.org/images/spectrogram/2019_Jul/9b29892b1a9dd74d4f1d73ce7c706140.png)
Input File: 04 - T.W.H.A.F.W.I.H..mp3
Channels : 2
Sample Rate : 44100
Precision : 16-bit
Duration : 00:00:55.80 = 2460912 samples = 4185.22 CDDA sectors
File Size : 2.23M
Bit Rate : 320k
Sample Encoding: MPEG audio (layer I, II or III)
Comments :
Title=T.W.H.A.F.W.I.H.
Artist=Qassam
Album=Shyathan Akhbar!
Tracknumber=4
Year=2013
Genre=Black Metal



Register


Go to the top of the page
  Insert nick Quick quote
+Quote Post
 
Start new topic
Replies (1 - 8)
post Jul 21 2019, 20:12:30
Post #2

Мегаманьяк
***********
Group: Металариец
Posts: 1,569
Releases: 24
From: Spain
On Forums: 12 years 7 months
Thanks: 1246 time(s)
Spain




Thanks:
Go to the top of the page
  Insert nick Quick quote
+Quote Post
post Jul 21 2019, 21:04:56
Post #3

Cultist
**************
Group: Металариец
Posts: 4,283
Releases: 1330
From: Koenigsberg
On Forums: 13 years 3 months
Thanks: 8732 time(s)
Russian Federation


В интрухе тут забавное муслимское пение
Зато потом "music recorded ...at autumn 2012 (1433 after fucking Hijra)...with total possession and alcoholic influence"
Go to the top of the page
  Insert nick Quick quote
+Quote Post
post Jul 21 2019, 21:05:52
Post #4

Правь статус, ####!111
**************
Group: Металариец
Posts: 45,641
Releases: 704
On Forums: 10 years 9 months
Thanks: 37597 time(s)
Russian Federation


ЦИТАТА(TDM @ Jul 22 2019, 00:04:56) *
with total possession and alcoholic influence"


Все верно сделали - какой же метал без бухла?


Thanks:
Go to the top of the page
  Insert nick Quick quote
+Quote Post
post Jul 22 2019, 08:13:57
Post #5

Пять Литров
*****
Group: Металариец
Posts: 461
Releases: 21
From: Подольск
On Forums: 10 years 9 months
Thanks: 652 time(s)
Russian Federation


ЦИТАТА(TDM @ Jul 21 2019, 23:04:56) *
В интрухе тут забавное муслимское пение

один из игиловских нашидов походу (IMG:style_emoticons/default/genius.gif) ну да, забавное (IMG:style_emoticons/default/1488.gif)
а по музыке - искренняя такая оголтелая долбёжка, ябвзял
Go to the top of the page
  Insert nick Quick quote
+Quote Post
post Jul 22 2019, 20:23:43
Post #6

Три Литра
***
Group: Завсегдатай
Posts: 296
Releases: 0
From: Kyiv
On Forums: 7 years 11 months
Thanks: 116 time(s)
Ukraine


Норм, мне понравилось)
Go to the top of the page
  Insert nick Quick quote
+Quote Post
post Jul 22 2019, 23:08:24
Post #7

Литр
*
Group: Подсевший
Posts: 90
Releases: 0
From: italy
On Forums: 12 years 10 months
Thanks: 12 time(s)
Italy


download error
Go to the top of the page
  Insert nick Quick quote
+Quote Post
post Jul 23 2019, 00:40:38
Post #8

Правь статус, ####!111
**************
Group: Металариец
Posts: 2,230
Releases: 0
From: UK
On Forums: 3 years 9 months
Thanks: 130 time(s)
United Kingdom


The link is not working
Go to the top of the page
  Insert nick Quick quote
+Quote Post
post Jul 23 2019, 09:25:06
Post #9

Пять Литров
*****
Group: Металариец
Posts: 461
Releases: 21
From: Подольск
On Forums: 10 years 9 months
Thanks: 652 time(s)
Russian Federation


во славу господа нашего (IMG:style_emoticons/default/true_black.gif)

Register

Register


Go to the top of the page
  Insert nick Quick quote
+Quote Post

Reply to this topicStart new topic
1 User(s) are reading this topic (1 Guests and 0 Anonymous Users)
0 Members:

 



- Lo-Fi Version Support form
Copyrights and abuse reports form
Time is now: 30th March 2020 - 14:14:12