Welcome Guest ( Log In | Register )

> Releases Upload / Добавление релизов

Добавить релиз тут / Click here to add release
Рекомендованные обменники / Recommended file shares

 
Reply to this topicStart new topic
> No Point In Living - End Of My Life [single] (2017), Depressive Black Metal
post Jul 21 2019, 19:36:18
Post #1

Cultist
**************
Group: Металариец
Posts: 3,772
Releases: 1220
From: Koenigsberg
On Forums: 12 years 7 months
Thanks: 7297 time(s)
Russian Federation


(IMG:http://metalarea.org/images/audiocovers/2019_Jul/acov_tid324750_thumb.jpg)

*Artist: No Point In Living
*Album: End Of My Life [single]
*Year: 2017
*Genre: Depressive Black Metal
*Country: Japan (IMG:http://metalarea.org/forum/style_images/flags/Japan.png)
*Format: mp3@CBR320kbps
*Size: 22MB

Tracklist:
1. End of My Life 09:41
******************************
Total playing time: 9:41



Technical info
(IMG:http://metalarea.org/images/spectrogram/2019_Jul/de085b83bfc6d69f3e19622fcecc9fd8.png)
Input File: 01 - End Of My Life.mp3
Channels : 2
Sample Rate : 44100
Precision : 16-bit
Duration : 00:09:41.54 = 25646090 samples = 43615.8 CDDA sectors
File Size : 23.3M
Bit Rate : 320k
Sample Encoding: MPEG audio (layer I, II or III)
Comments :
Title=End Of My Life
Artist=No Point In Living
Album=End Of My Life (Single)
Tracknumber=01
Year=2017
Genre=Depressive Black Metal



Register


Go to the top of the page
  Insert nick Quick quote
+Quote Post

Reply to this topicStart new topic
1 User(s) are reading this topic (1 Guests and 0 Anonymous Users)
0 Members:

 



- Lo-Fi Version Support form
Copyrights and abuse reports form
Time is now: 26th August 2019 - 06:38:10