Welcome Guest ( Log In | Register )

 
Reply to this topicStart new topic
> Universal Disorder - Act I: A Pilgrimage In The Chaotic Streams Of Creation And Uncreation [ep] (2019), Black Metal
post Jul 22 2019, 00:47:36
Post #1

Правь статус, ####!111
**************
Group: Металариец
Posts: 4,069
Releases: 1042
From: Brazil
On Forums: 7 years 10 months
Thanks: 38638 time(s)
Brazil


(IMG:https://metalarea.org/images/audiocovers/2019_Jul/acov_tid324767_thumb.jpg)

*Artist: Universal Disorder
*Album: Act I: A Pilgrimage In The Chaotic Streams Of Creation And Uncreation [ep]
*Year: 2019
*Genre: Black Metal
*Country: Sweden (IMG:https://metalarea.org/forum/style_images/flags/Sweden.png)
*Format: mp3@CBR320kbps
*Size: 56MB

Tracklist:
1. Into the Everdark Fountains of Creation 10:42
2. In the Infinite Currents of Universal Disorder 13:27
******************************
Total playing time: 24:09



Extended info
International: Gotland, Sweden / Oulu, Finland

Lineup

D Seestrand Guitars, Bass, Drums, Keyboards (2019-present)
See also: D Aphelium

Sovereign Vocals (2019-present)
See also: Iku-Turso, Khanus, Nachtvrucht, Wrathage


Technical info
(IMG:https://metalarea.org/images/spectrogram/2019_Jul/1b5e718368a38473098de63495429e73.png)
Input File: 01 Into the Everdark Fountains of Creation.mp3
Channels : 2
Sample Rate : 44100
Precision : 16-bit
Duration : 00:10:42.10 = 28316566 samples = 48157.4 CDDA sectors
File Size : 25.7M
Bit Rate : 320k
Sample Encoding: MPEG audio (layer I, II or III)
Comments :
Title=Into the Everdark Fountains of Creation
Artist=Universal Disorder
Album=Act I: a Pilgrimage in the Chaotic Streams of Creation and Uncreation
Tracknumber=1
Year=2019



Register


Go to the top of the page
  Insert nick Quick quote
+Quote Post

Reply to this topicStart new topic
1 User(s) are reading this topic (1 Guests and 0 Anonymous Users)
0 Members:

 



- Lo-Fi Version Support form
Copyrights and abuse reports form
Time is now: 16th December 2019 - 08:45:38