Welcome Guest ( Log In | Register )

 
Reply to this topicStart new topic
> Black Candle Wax - Black Candle Wax [demo] (2019), Raw Black Metal
post Jul 22 2019, 01:36:47
Post #1

Правь статус, ####!111
**************
Group: Металариец
Posts: 4,182
Releases: 1117
From: Brazil
On Forums: 7 years 11 months
Thanks: 41260 time(s)
Brazil


(IMG:https://metalarea.org/images/audiocovers/2019_Jul/acov_tid324769_thumb.jpg)

*Artist: Black Candle Wax
*Album: Black Candle Wax [demo]
*Year: 2019
*Genre: Raw Black Metal
*Country: United States (IMG:https://metalarea.org/forum/style_images/flags/United%20States.png)
*Format: mp3@CBR320kbps
*Size: 30MB

Tracklist:
1. Fangs of a Snake
2. Wicked Deeds
3. Spire of Madness
4. Lost in Time
5. Delayed Psychosis
******************************
Total playing time: 12:20

Extended info
Tape-rip by toooooomb


Technical info
(IMG:https://metalarea.org/images/spectrogram/2019_Jul/706c883518699ff6e360b5f18737f408.png)
Input File: 02. Wicked Deeds.mp3
Channels : 2
Sample Rate : 48000
Precision : 16-bit
Duration : 00:01:53.28 = 5437440 samples ~ 8496 CDDA sectors
File Size : 4.53M
Bit Rate : 320k
Sample Encoding: MPEG audio (layer I, II or III)
Comments :
Title=Wicked Deeds
Artist=Black Candle Wax
Album=Black Candle Wax
Tracknumber=2/5
Year=2019
Genre=Black Metal



Register


Go to the top of the page
  Insert nick Quick quote
+Quote Post

Reply to this topicStart new topic
1 User(s) are reading this topic (1 Guests and 0 Anonymous Users)
0 Members:

 



- Lo-Fi Version Support form
Copyrights and abuse reports form
Time is now: 26th January 2020 - 10:29:31