Welcome Guest ( Log In | Register )

 
Reply to this topicStart new topic
> Black Candle Wax - Ii [demo] (2019), Raw Black Metal
post Jul 22 2019, 01:57:32
Post #1

Правь статус, ####!111
**************
Group: Металариец
Posts: 4,054
Releases: 1038
From: Brazil
On Forums: 7 years 10 months
Thanks: 38591 time(s)
Brazil


(IMG:https://metalarea.org/images/audiocovers/2019_Jul/acov_tid324770_thumb.jpg)

*Artist: Black Candle Wax
*Album: Ii [demo]
*Year: 2019
*Genre: Raw Black Metal
*Country: United States (IMG:https://metalarea.org/forum/style_images/flags/United%20States.png)
*Format: mp3@CBR320kbps
*Size: 32MB

Tracklist:
1. From Beyond
2. Disturbing the Ancient
3. Poor Souls
4. Cyclical Despair
5. Body Eater
******************************
Total playing time: 13:01

Extended info
Tape-rip by toooooomb


Technical info
(IMG:https://metalarea.org/images/spectrogram/2019_Jul/a01c3d10312fba3b24e4714f4f60f99e.png)
Input File: 02. Disturbing the Ancient.mp3
Channels : 2
Sample Rate : 48000
Precision : 16-bit
Duration : 00:02:09.22 = 6202368 samples ~ 9691.2 CDDA sectors
File Size : 5.17M
Bit Rate : 320k
Sample Encoding: MPEG audio (layer I, II or III)
Comments :
Title=Disturbing the Ancient
Artist=Black Candle Wax
Album=II
Tracknumber=2/5
Year=2019
Genre=Black Metal



Register


Go to the top of the page
  Insert nick Quick quote
+Quote Post

Reply to this topicStart new topic
1 User(s) are reading this topic (1 Guests and 0 Anonymous Users)
0 Members:

 



- Lo-Fi Version Support form
Copyrights and abuse reports form
Time is now: 15th December 2019 - 04:26:50