Welcome Guest ( Log In | Register )

> Releases Upload / Добавление релизов

Добавить релиз тут / Click here to add release
Рекомендованные обменники / Recommended file shares

> E-An-Na - Nesfârşite (2019), Folk Metal
post Jul 22 2019, 13:22:30
Post #1

Serial Uploader
Group Icon
Group: V.I.P
Posts: 35,861
Releases: 34042
From: Lithuania
On Forums: 11 years 2 months
Thanks: 393439 time(s)
Lithuania


(IMG:https://metalarea.org/images/audiocovers/2019_Jul/acov_tid324795_thumb.jpg)

*Artist: E-An-Na
*Album: Nesfârşite
*Year: 2019
*Genre: Folk Metal
*Country: Romania (IMG:https://metalarea.org/forum/style_images/flags/Romania.png)
*Format: mp3@CBR320kbps
*Size: 148MB

Tracklist:
01. Viu 03:08
02. Aer 06:30
03. Fiecare gest al nostru (feat. Robert Cotoros) 02:18
04. Epitaf 05:10
05. Pielea 06:40
06. Pânda 05:04
07. Frica 04:20
08. Zadar (feat. Daniel Neagoe) 07:34
09. Izbândă şi a râvni 03:21
10. Apele îngheţate 03:12
11. iO.tă 05:13
12. În frânt (feat. Michalina Malisz & Archy Jay) 04:43
13. Mashiara (feat. Daniel Neagoe) 07:32
******************************
Total playing time: 1:04:45



(IMG:https://metalarea.org/images/youtube.png)

Technical info
(IMG:https://metalarea.org/images/spectrogram/2019_Jul/46cd974c3a66ce3eb41d3e92bea4da62.png)
Input File: 02. Aer.mp3
Channels : 2
Sample Rate : 44100
Precision : 16-bit
Duration : 00:06:30.16 = 17206188 samples = 29262.2 CDDA sectors
File Size : 15.6M
Bit Rate : 320k
Sample Encoding: MPEG audio (layer I, II or III)
Comments :
Title=Aer
Artist=E-an-na
Album=Nesfârşite
Tracknumber=2
Year=2019



Register


Go to the top of the page
  Insert nick Quick quote
+Quote Post
 
Start new topic
Replies (1 - 1)
post Jul 23 2019, 10:57:45
Post #2

тебе 28, а ты все реверсами балуешься
***********
Group: Металариец
Posts: 1,707
Releases: 4
On Forums: 11 years 3 weeks
Thanks: 483 time(s)
Russian Federation


Интересный джентофолк с хорошим звуком.
Go to the top of the page
  Insert nick Quick quote
+Quote Post

Reply to this topicStart new topic
1 User(s) are reading this topic (1 Guests and 0 Anonymous Users)
0 Members:

 



- Lo-Fi Version Support form
Copyrights and abuse reports form
Time is now: 22nd August 2019 - 15:50:22