Welcome Guest ( Log In | Register )

 
Reply to this topicStart new topic
> Obeisance - Musica Del Diablo (2018), Thrash/Black Metal (D)
post Jul 22 2019, 13:39:12
Post #1

frost junkie
*****
Group: Металариец
Posts: 421
Releases: 8
On Forums: 10 years 11 months
Thanks: 357 time(s)
Ukraine


(IMG:http://metalarea.org/images/audiocovers/2019_Jul/acov_tid324796_thumb.jpg)

*Artist: Obeisance
*Album: Musica Del Diablo
*Year: 2018
*Genre: Thrash/Black Metal
*Country: United States (IMG:http://metalarea.org/forum/style_images/flags/United%20States.png)
*Format: mp3@VBR211kbps
*Size: 50MB

Tracklist:
1. Elizabeth in Red
2. Night Stalker from Hell Paso
3. Nuklear Penetrator II
4. Pray to the Ensnarers
5. W.T.M.C.A (Johnny Cash cover)
6. Ferocious Savage Belief
7. Dying Is Gay Seth
8. Venomous Inundation of Demonic Realm
9. Ready for Fukky
10. Into the Crypt of Rays (Celtic Frost cover)
******************************
Total playing time: 32:03

Technical info
(IMG:http://metalarea.org/images/spectrogram/2019_Jul/476b71a4f55678776a5e095c373f3c59.png)
Input File: 01-obeisance-elizabeth_in_red.mp3
Channels : 2
Sample Rate : 44100
Precision : 16-bit
Duration : 00:03:40.64 = 9730224 samples = 16548 CDDA sectors
File Size : 4.09M
Bit Rate : 148k
Sample Encoding: MPEG audio (layer I, II or III)
Comments :
Title=Elizabeth In Red
Artist=Obeisance
Album=Musica Del Diablo
Tracknumber=01/10
Year=2018
Genre=Rock
Discnumber=1/1



Register


Go to the top of the page
  Insert nick Quick quote
+Quote Post

Reply to this topicStart new topic
1 User(s) are reading this topic (1 Guests and 0 Anonymous Users)
0 Members:

 



- Lo-Fi Version Support form
Copyrights and abuse reports form
Time is now: 12th December 2019 - 04:21:36