Welcome Guest ( Log In | Register )

 
Reply to this topicStart new topic
> Flooded Tomb - Safehouse Session [demo] (2019), Sludge/Stoner Metal
post Jul 22 2019, 14:29:29
Post #1

Каждое ваше "Спасибо" помогает мне понять, что я делаю новости не напрасно.
**************
Group: Металариец
Posts: 2,124
Releases: 1871
From: Одесса
On Forums: 11 years 6 months
Thanks: 16468 time(s)
Ukraine


(IMG:http://metalarea.org/images/audiocovers/2019_Jul/acov_tid324798_thumb.jpg)

*Artist: Flooded Tomb
*Album: Safehouse Session [demo]
*Year: 2019
*Genre: Sludge/Stoner Metal
*Country: United States (IMG:http://metalarea.org/forum/style_images/flags/United%20States.png)
*Format: mp3@CBR320kbps
*Size: 74MB

Tracklist:
1. Sick & Tired 04:18
2. Buried in the Blacklands 04:50
3. Gaillardia Bloom 03:14
4. Polylith 04:00
5. Pay Attention 03:39
6. White Boar 05:18
7. Grandfather's Axe 05:42
******************************
Total playing time: 31:01



Extended info
FLAC RIP

Line - up:

Rob Jenkins - Bass
Scott Brouillette - Drums, Vocals (ex-Slaughter Bought)
Chris Myers - Guitars, Vocals (ex-Slaughter Bought)
Nathan Jones - Vocals, Guitars

(IMG:https://www.metal-archives.com/images/3/5/4/0/3540448954_photo.jpg?0822)


Technical info
(IMG:http://metalarea.org/images/spectrogram/2019_Jul/76f05dec798dc214b8030e00024f1589.png)
Input File: 01. Sick & Tired.mp3
Channels : 2
Sample Rate : 44100
Precision : 16-bit
Duration : 00:04:18.66 = 11406686 samples = 19399.1 CDDA sectors
File Size : 10.4M
Bit Rate : 322k
Sample Encoding: MPEG audio (layer I, II or III)
Comments :
Title=Sick & Tired
Artist=Flooded Tomb
Album=Safehouse Session (Demo)
Tracknumber=1
Year=2019
Genre=Sludge/Stoner Metal



Register


Go to the top of the page
  Insert nick Quick quote
+Quote Post

Reply to this topicStart new topic
1 User(s) are reading this topic (1 Guests and 0 Anonymous Users)
0 Members:

 



- Lo-Fi Version Support form
Copyrights and abuse reports form
Time is now: 15th December 2019 - 11:49:37