Welcome Guest ( Log In | Register )

> Releases Upload / Добавление релизов

Добавить релиз тут / Click here to add release
Рекомендованные обменники / Recommended file shares

 
Reply to this topicStart new topic
> David Ellefson - Sleeping Giants [compilation] (2019), Thrash/Speed Metal
post Jul 22 2019, 18:34:55
Post #1

Каждое ваше "Спасибо" помогает мне понять, что я делаю новости не напрасно.
***********
Group: Металариец
Posts: 1,894
Releases: 1656
From: Одесса
On Forums: 11 years 2 months
Thanks: 13986 time(s)
Ukraine


(IMG:http://metalarea.org/images/audiocovers/2019_Jul/acov_tid324805_thumb.jpg)

*Artist: David Ellefson
*Album: Sleeping Giants [compilation]
*Year: 2019
*Genre: Thrash/Speed Metal
*Country: United States (IMG:http://metalarea.org/forum/style_images/flags/United%20States.png)
*Format: mp3@CBR320kbps
*Size: 163MB

Tracklist:
1. Vultures 03:31
2. Sleeping Giants 03:40
3. Hammer (Comes Down) 03:20
4. Vultures (Kristian Nairn Remix) 07:27
5. If You Were God (1993 Demo) 03:32
6. Deadman Rise (Demo) 03:11
7. I Fall (F5 Demo) 03:41
8. Bleeding (F5 Demo) 05:01
9. Why Can't We Die? (F5 Demo) 03:00
10. Dying on the Vine (F5 Demo) 03:08
11. Faded (F5 Demo) 03:17
12. Undeniable (F5 Demo) 03:41
13. Feel Your Pain (F5 Demo) 03:21
14. Out in the Rain 04:16
15. Voices 04:08
16. Like Father, like Son * 03:30
17. Home * 03:40
18. After All (Said and Done) * 03:29
******************************
Total playing time: 1:08:53

(IMG:http://metalarea.org/images/youtube.png)

Extended info
Line - up:
Thom Hazaert - Vocals (lead) (tracks 1-4)
David Ellefson - Guitars, Bass (Altitudes & Attitude, Knight Fury, Megadeth, Metal Allegiance, The Alien Blakk, ex-Temple of Brutality, Hail!, ex-Angels of Babylon, ex-Killing Machine, ex-Soulfly (live), ex-Tim Ripper Owens (live), ex-F5, ex-Fallen Angels)

Guest/Session:
John Bush - Vocals (lead) (track 5) (Armored Saint, ex-Anthrax, ex-Stone Soldier)
Eric A.K. - Vocals (additional) (track 3) (Flotsam and Jetsam, The Human Condition, ex-Dogz, ex-Dredlox)
Mark Tremonti - Guitars (track 3) (Alter Bridge, Creed, Tremonti)
Chris Poland - Guitars (track 3) (Chris Poland, ex-Damn the Machine, Ohm, OHMphrey, ex-Megadeth, ex-Circle Jerks, ex-Mumbo's Brain, ex-The New Yorkers)
David Glen Eisley - Vocals (lead) (tracks 14-18) (David Glen Eisley, Eisley/Goldy)
MC Darryl "DMC" McDaniels - Vocals (additional) (track 2) (Run-DMC)
Ken Mary - Drums (Flotsam and Jetsam, Fifth Angel, ex-Accept, ex-Chastain, ex-David T. Chastain, ex-Impellitteri, ex-James Byrd, ex-TKO, ex-Strike, ex-Alice Cooper, ex-House of Lords, ex-Magdallan, ex-Randy Hansen, ex-Soul Shock Remedy)
Steve Conley - Guitars (Flotsam and Jetsam, Tragul, F5)
Dave McClain - Drums (Sacred Reich, ex-Catalepsy, ex-Ministers of Anger, ex-Murdercar, ex-Narita, ex-S.A. Slayer, ex-Juggernaut, ex-Machine Head, ex-Mark Reale Project, ex-Seance, ex-Turbin, ex-Tyrant)
Ron "Bumblefoot" Thal - Guitars (Sons of Apollo, Altitudes & Attitude (live), ex-Awol, Art of Anarchy, Asia, Bumblefoot, ex-Guns N' Roses, ex-Legend, ex-Leonard Nimoy [Cover band], ex-Lita Ford (live))
Ilias Papadakis - Guitars (Memorain)
Ethan Brosh - Guitars (Fifth Angel, Ethan Brosh, Burning Heat, ex-Angels of Babylon)
Dave Sharpe - Guitars (End-Time Illusion, ex-Lachrymator, Dead by Wednesday, ex-Blood Has Been Shed)
Opus Lawremce - Drums (Dead by Wednesday)
Andy Martongelli - Guitars (Arthemis, Andy Martongelli, Fear of Fours, Bad Faith, ex-Power Quest, ex-Altitudes & Attitude (live), ex-Kobra and the Lotus (live))

(IMG:https://www.metal-archives.com/images/3/5/4/0/3540321197_photo.jpg)


Technical info
(IMG:http://metalarea.org/images/spectrogram/2019_Jul/753c626ba0365038bf70d044fda28b5d.png)
Input File: 04. Vultures (Kristian Nairn Remix) (feat. Thom Hazaert).mp3
Channels : 2
Sample Rate : 44100
Precision : 16-bit
Duration : 00:07:27.32 = 19726900 samples = 33549.1 CDDA sectors
File Size : 17.9M
Bit Rate : 320k
Sample Encoding: MPEG audio (layer I, II or III)
Comments :
Title=Vultures (Kristian Nairn Remix) (feat. Thom Hazaert)
Artist=David Ellefson
Album=Sleeping Giants (Compilation)
Tracknumber=4
Year=2019
Genre=Thrash/Speed Metal



Register


Go to the top of the page
  Insert nick Quick quote
+Quote Post

Reply to this topicStart new topic
1 User(s) are reading this topic (1 Guests and 0 Anonymous Users)
0 Members:

 



- Lo-Fi Version Support form
Copyrights and abuse reports form
Time is now: 19th August 2019 - 20:17:00