Welcome Guest ( Log In | Register )

 
Reply to this topicStart new topic
> Herejia - Despierta (2016), Heavy/Power Metal (D4)
post Jul 22 2019, 21:42:39
Post #1

Правь статус, ####!111
**************
Group: Металариец
Posts: 19,763
Releases: 13396
From: Г.Харьков
On Forums: 7 years 6 months
Thanks: 231569 time(s)
Unknown


(IMG:https://metalarea.org/images/audiocovers/2019_Jul/acov_tid324808_thumb.jpg)

*Artist: Herejia
*Album: Despierta
*Year: 2016
*Genre: Heavy/Power Metal
*Country: Spain (IMG:https://metalarea.org/forum/style_images/flags/Spain.png)
*Format: mp3@CBR320kbps
*Size: 118MB

Tracklist:
1. Apócrifo 00:40
2. Despierta 05:09
3. Ya es hora 05:06
4. Sin piedad 05:48
5. Mercenario 05:06
6. Pagarás 03:41
7. Solo aquí 05:22
8. Destino cruel 06:12
9. Hereje 05:52
10. Una vez mas 08:00
******************************
Total playing time: 50:56

(IMG:https://metalarea.org/images/youtube.png)


Extended info
Mateo Domingo Merino Bass
Yoni Harald Frentzen Drums
Borja Diaz Fernandez Guitars
Ruben Fernandez Fernandez Guitars
Bruce Kiske Vocals


Technical info
(IMG:https://metalarea.org/images/spectrogram/2019_Jul/a02d23026727e8ca50c193c8f7fe458f.png)
Input File: 2 - Despierta.mp3
Channels : 2
Sample Rate : 44100
Precision : 16-bit
Duration : 00:05:09.75 = 13660019 samples = 23231.3 CDDA sectors
File Size : 12.6M
Bit Rate : 325k
Sample Encoding: MPEG audio (layer I, II or III)
Comments :
Title=Despierta
Artist=Herejía
Album=Despierta
Tracknumber=2
Year=2016
Genre=Metal
Discnumber=1



Register


Go to the top of the page
  Insert nick Quick quote
+Quote Post

Reply to this topicStart new topic
1 User(s) are reading this topic (1 Guests and 0 Anonymous Users)
0 Members:

 



- Lo-Fi Version Support form
Copyrights and abuse reports form
Time is now: 5th December 2019 - 18:01:47