Welcome Guest ( Log In | Register )

 
Reply to this topicStart new topic
> Sex Blender - Hormonizer (2018), Stoner/Doom Metal/Heavy Psych
post Jul 23 2019, 11:31:58
Post #1

Правь статус, ####!111
**************
Group: Металариец
Posts: 45,708
Releases: 704
On Forums: 10 years 9 months
Thanks: 37641 time(s)
Russian Federation


(IMG:http://metalarea.org/images/audiocovers/2019_Jul/acov_tid324812_thumb.jpg)

*Artist: Sex Blender
*Album: Hormonizer
*Year: 2018
*Genre: Stoner/Doom Metal/Heavy Psych
*Country: Ukraine (IMG:http://metalarea.org/forum/style_images/flags/Ukraine.png)
*Format: mp3@CBR320kbps
*Size: 111MB

Tracklist:
1. Diver 13:48
2. Das Motorik 05:52
3. Pterozistor 17:01
4. Covered by Night (Shines from Within) 11:53
******************************
Total playing time: 48:34



Technical info
(IMG:http://metalarea.org/images/spectrogram/2019_Jul/37df823f656c4ba0919ca3cdd430ac0e.png)
Input File: 01 Diver.mp3
Channels : 2
Sample Rate : 44100
Precision : 16-bit
Duration : 00:13:48.10 = 36519254 samples = 62107.6 CDDA sectors
File Size : 33.2M
Bit Rate : 321k
Sample Encoding: MPEG audio (layer I, II or III)
Comments :
Title=Diver
Artist=Sex Blender
Album=Hormonizer
Tracknumber=1
Year=2018



Register


Go to the top of the page
  Insert nick Quick quote
+Quote Post

Reply to this topicStart new topic
1 User(s) are reading this topic (1 Guests and 0 Anonymous Users)
0 Members:

 



- Lo-Fi Version Support form
Copyrights and abuse reports form
Time is now: 1st April 2020 - 10:29:18