Welcome Guest ( Log In | Register )

> Releases Upload / Добавление релизов

Добавить релиз тут / Click here to add release
Рекомендованные обменники / Recommended file shares

> Hess - Harpokrates (2019), Heavy Metal
post Jul 23 2019, 13:09:23
Post #1

Serial Uploader
Group Icon
Group: V.I.P
Posts: 36,090
Releases: 34291
From: Lithuania
On Forums: 11 years 3 months
Thanks: 397747 time(s)
Lithuania


(IMG:http://metalarea.org/images/audiocovers/2019_Jul/acov_tid324814_thumb.jpg)

*Artist: Hess
*Album: Harpokrates
*Year: 2019
*Genre: Heavy Metal
*Country: Argentina (IMG:http://metalarea.org/forum/style_images/flags/Argentina.png)
*Format: mp3@CBR320kbps
*Size: 132MB

Tracklist:
01. King Aiwass 06:17
02. God of Silence 06:59
03. Thoth 07:16
04. The Outsider 07:27
05. Heroes 07:05
06. Battle of Maldon 06:59
07. Chaos at Uruk 04:18
08. Atlantean Dreams 06:36
09. Hagalaz 05:01
******************************
Total playing time: 57:58




(IMG:http://metalarea.org/images/youtube.png)

Technical info
(IMG:http://metalarea.org/images/spectrogram/2019_Jul/23038c72cfe5ab816ddaa51243dd560e.png)
Input File: 02. God of Silence.mp3
Channels : 2
Sample Rate : 44100
Precision : 16-bit
Duration : 00:06:59.08 = 18481516 samples = 31431.1 CDDA sectors
File Size : 16.8M
Bit Rate : 320k
Sample Encoding: MPEG audio (layer I, II or III)
Comments :
Title=God of Silence
Artist=Hess
Album=Harpokrates
Tracknumber=2/9
Year=2019



Register

Register


Go to the top of the page
  Insert nick Quick quote
+Quote Post
 
Start new topic
Replies (1 - 3)
post Jul 24 2019, 09:38:52
Post #2

Правь статус, ####!111
**************
Group: Металариец
Posts: 2,607
Releases: 8
From: Dnipro
On Forums: 11 years 2 months
Thanks: 799 time(s)
Ukraine


Вумен голосит.
Go to the top of the page
  Insert nick Quick quote
+Quote Post
post Jul 24 2019, 09:41:39
Post #3

hearer & reader
**************
Group: Металариец
Posts: 8,029
Releases: 104
From: Moscow
On Forums: 12 years 1 week
Thanks: 7518 time(s)
Russian Federation



Вумен стала голосить приятнее уху, как мне показалось..
Go to the top of the page
  Insert nick Quick quote
+Quote Post
post Jul 25 2019, 01:47:56
Post #4

South Of Heaven /адепт ВУДУ
**************
Group: Металариец
Posts: 13,795
Releases: 9
On Forums: 9 years 5 months
Thanks: 5181 time(s)
Unknown


Да, с вокалом стало заметно лучше, однако "красивости" тембра ну совсем нема.
Go to the top of the page
  Insert nick Quick quote
+Quote Post

Reply to this topicStart new topic
1 User(s) are reading this topic (1 Guests and 0 Anonymous Users)
0 Members:

 



- Lo-Fi Version Support form
Copyrights and abuse reports form
Time is now: 17th September 2019 - 23:40:57