Welcome Guest ( Log In | Register )

 
Reply to this topicStart new topic
> Offenbarung - Manifestus (2019), Atmospheric Black Metal
post Jul 24 2019, 05:46:55
Post #1

Правь статус, ####!111
**************
Group: Металариец
Posts: 4,605
Releases: 1336
From: Brazil
On Forums: 8 years 7 months
Thanks: 49881 time(s)
Brazil


(IMG:https://metalarea.org/images/audiocovers/2019_Jul/acov_tid324835_thumb.jpg)

*Artist: Offenbarung
*Album: Manifestus
*Year: 2019
*Genre: Atmospheric Black Metal
*Country: Argentina (IMG:https://metalarea.org/forum/style_images/flags/Argentina.png)
*Format: mp3@CBR320kbps
*Size: 120MB

Tracklist:
1. Portals Toward Obsidian Dreams 15:37
2. Astral Meditation in the Subterranean Mountain 14:12
3. Oniric Deambulations Through the Path of the Dead 11:54
4. Rebirth Through Immersion in the Immortal Fanged Cascade 09:58
******************************
Total playing time: 51:41



Technical info
(IMG:https://metalarea.org/images/spectrogram/2019_Jul/e772ab3b571002a545f5c0c7fe5685d3.png)
Input File: 01 Portals Toward Obsidian Dreams.mp3
Channels : 2
Sample Rate : 44100
Precision : 16-bit
Duration : 00:15:37.12 = 41326816 samples = 70283.7 CDDA sectors
File Size : 37.5M
Bit Rate : 320k
Sample Encoding: MPEG audio (layer I, II or III)
Comments :
Title=Portals Toward Obsidian Dreams
Artist=Offenbarung
Album=Manifestus
Tracknumber=1
Year=2019



Register


Go to the top of the page
  Insert nick Quick quote
+Quote Post

Reply to this topicStart new topic
1 User(s) are reading this topic (1 Guests and 0 Anonymous Users)
0 Members:

 



- Lo-Fi Version Support form
Copyrights and abuse reports form
Time is now: 25th September 2020 - 11:19:36