Welcome Guest ( Log In | Register )

> Dimmen - I Am Hate (2019), Melodic Death/Black Metal
post Jul 24 2019, 13:46:11
Post #1

Serial Uploader
Group Icon
Group: V.I.P
Posts: 37,133
Releases: 35317
From: Lithuania
On Forums: 11 years 11 months
Thanks: 419540 time(s)
Lithuania


(IMG:https://metalarea.org/images/audiocovers/2019_Jul/acov_tid324846_thumb.jpg)

*Artist: Dimmen
*Album: I Am Hate
*Year: 2019
*Genre: Melodic Death/Black Metal
*Country: United States (IMG:https://metalarea.org/forum/style_images/flags/United%20States.png)
*Format: mp3@CBR320kbps
*Size: 78MB

Tracklist:
01. I'l Die Alone
02. I Am Hate
03. Symphony of Suicide
04. Flick of a Switch
05. Dead Love
06. Wasted
07. All Love Dies
08. Freezing Darkness Death
09. Join Me
******************************
Total playing time: 33:54



Technical info
(IMG:https://metalarea.org/images/spectrogram/2019_Jul/f923f0d0abd8bc973df674f3db26e765.png)
Input File: 02. I Am Hate.mp3
Channels : 2
Sample Rate : 44100
Precision : 16-bit
Duration : 00:03:36.49 = 9547253 samples = 16236.8 CDDA sectors
File Size : 9.20M
Bit Rate : 340k
Sample Encoding: MPEG audio (layer I, II or III)
Comments :
Title=I Am Hate
Artist=Dimmen
Album=I Am Hate
Tracknumber=2/9
Year=2019



Register


Go to the top of the page
  Insert nick Quick quote
+Quote Post
 
Start new topic
Replies (1 - 5)
post Jul 25 2019, 09:19:24
Post #2

hearer & reader
**************
Group: Металариец
Posts: 8,707
Releases: 140
From: Moscow
On Forums: 12 years 8 months
Thanks: 8742 time(s)
Russian Federation



А где блэк и дес? Прогрессивный мелодик с харшем.


Thanks:
Go to the top of the page
  Insert nick Quick quote
+Quote Post
post Jul 25 2019, 13:29:07
Post #3

Правь статус, ####!111
**************
Group: Металариец
Posts: 3,022
Releases: 8
From: Dnipro
On Forums: 11 years 10 months
Thanks: 977 time(s)
Ukraine


ЦИТАТА(AHBAnep @ Jul 25 2019, 11:19:24) *
А где блэк и дес? Прогрессивный мелодик с харшем.

Может и нету, но все равно звучит симпатично.


Thanks:
Go to the top of the page
  Insert nick Quick quote
+Quote Post
post Jul 25 2019, 20:10:55
Post #4

Ёлд ХеллоВяйне
Group Icon
Group: V.I.P
Posts: 29,771
Releases: 137
From: Питер
On Forums: 13 years 7 months
Thanks: 17667 time(s)
Russian Federation


QUOTE(AHBAnep @ 25th July 2019 - 11:19:24) *
Прогрессивный мелодик с харшем.


Где тут прог, не понял. ЧоБ-ваннаби, при том, что до ранних не дотянуться, а превзойти поздних такое себе достижение.
Go to the top of the page
  Insert nick Quick quote
+Quote Post
post Jul 27 2019, 15:26:07
Post #5

Два Литра
**
Group: Завсегдатай
Posts: 129
Releases: 2
On Forums: 9 years 11 months
Thanks: 154 time(s)
Russian Federation


FLAC: https://yadi.sk/d/YIB6EHAIhxLJjA


Thanks:
(1) Olethros,
Go to the top of the page
  Insert nick Quick quote
+Quote Post
post Aug 6 2019, 12:58:59
Post #6

Ъ
**************
Group: Металариец
Posts: 10,097
Releases: 9
On Forums: 11 years 4 months
Thanks: 2019 time(s)
Sweden


Третьесорт, не тянут даже поздний чоб.
Go to the top of the page
  Insert nick Quick quote
+Quote Post

Reply to this topicStart new topic
1 User(s) are reading this topic (1 Guests and 0 Anonymous Users)
0 Members:

 



- Lo-Fi Version Support form
Copyrights and abuse reports form
Time is now: 4th June 2020 - 18:59:50