Welcome Guest ( Log In | Register )

 
Reply to this topicStart new topic
> Occasus Tyrannis - El Fuego De Nuestro Magia (2019), Heavy/Doom Metal
post Jul 24 2019, 19:10:09
Post #1

Правь статус, ####!111
**************
Group: Металариец
Posts: 19,438
Releases: 13151
From: Г.Харьков
On Forums: 7 years 6 months
Thanks: 226740 time(s)
Unknown


(IMG:https://metalarea.org/images/audiocovers/2019_Jul/acov_tid324863_thumb.jpg)

*Artist: Occasus Tyrannis
*Album: El Fuego De Nuestro Magia
*Year: 2019
*Genre: Heavy/Doom Metal
*Country: Costa Rica (IMG:https://metalarea.org/forum/style_images/flags/Costa%20Rica.png)
*Format: mp3@CBR320kbps
*Size: 101MB

Tracklist:
01. Malum Infernus (Intro)
02. El Fuego de Nuestra Magia
03. Círculo de Almas
04. Los Cuatro Jinetes
05. La Orden del Dragón
06. Líneas de Acero
07. Acto Final
08. Dama Hechicera
09. Noche de Walpurgis
10. Occasus Tyrannis
******************************
Total playing time: 47:29




Extended info
Viktor Monge Guitars
Redondo Montero Bass (2013-present)
See also: ex-Drakmen
Maximiliano Navarro Vocals (2013-present)
Charlie Ortiz Drums (2014-present)
Andrés Ortiz Guitars (2015-present)


Technical info
(IMG:https://metalarea.org/images/spectrogram/2019_Jul/14ee9e36691b64dd4c8338f90ac88314.png)
Input File: 04. Los Cuatro Jinetes.mp3
Channels : 2
Sample Rate : 44100
Precision : 16-bit
Duration : 00:05:34.05 = 14731561 samples = 25053.7 CDDA sectors
File Size : 13.4M
Bit Rate : 321k
Sample Encoding: MPEG audio (layer I, II or III)
Comments :
Title=Los Cuatro Jinetes
Artist=Occasus Tyrannis
Album=El Fuego de Nuestro Magia
Tracknumber=4/10
Year=2019
Genre=9
Discnumber=1/1



Register


Go to the top of the page
  Insert nick Quick quote
+Quote Post
post Jul 24 2019, 20:57:12
Post #2

Правь статус, ####!111
**************
Group: Металариец
Posts: 19,438
Releases: 13151
From: Г.Харьков
On Forums: 7 years 6 months
Thanks: 226740 time(s)
Unknown




Cloud Mail 320
Register


Thanks:
(1) poeira,
Go to the top of the page
  Insert nick Quick quote
+Quote Post

Reply to this topicStart new topic
1 User(s) are reading this topic (1 Guests and 0 Anonymous Users)
0 Members:

 



- Lo-Fi Version Support form
Copyrights and abuse reports form
Time is now: 12th November 2019 - 14:24:20